<?xml version="1.0" standalone="no"?>
<!DOCTYPE svg PUBLIC "-//W3C//DTD SVG 1.1//EN" "http://www.w3.org/Graphics/SVG/1.1/DTD/svg11.dtd" >
<svg>
<metadata>
Created by FontForge 20090622 at Mon Jul 11 16:04:06 2016
 By deploy user
&#194;&#169; 2011 Adobe Systems Incorporated. All rights reserved.
</metadata>
<defs>
<font id="TrajanPro3-Bold" horiz-adv-x="686" >
  <font-face 
    font-family="Trajan Pro 3"
    font-weight="700"
    font-stretch="normal"
    units-per-em="1000"
    panose-1="2 2 8 2 5 5 3 2 3 1"
    ascent="750"
    descent="-250"
    x-height="652"
    cap-height="753"
    bbox="-239.5 -434.025 1883 1106"
    underline-thickness="50"
    underline-position="-50"
    unicode-range="U+0020-U+FB02"
  />
<missing-glyph horiz-adv-x="529" 
d="M0 0v710h529v-710h-529zM85 51h359l-180 258zM296 355l179 -259v518zM53 614v-518l180 259zM85 659l179 -258l180 258h-359z" />
    <glyph glyph-name=".notdef" horiz-adv-x="529" 
d="M0 0v710h529v-710h-529zM85 51h359l-180 258zM296 355l179 -259v518zM53 614v-518l180 259zM85 659l179 -258l180 258h-359z" />
    <glyph glyph-name=".null" horiz-adv-x="0" 
 />
    <glyph glyph-name="nonmarkingreturn" horiz-adv-x="333" 
 />
    <glyph glyph-name="space" unicode=" " horiz-adv-x="280" 
 />
    <glyph glyph-name="exclam" unicode="!" horiz-adv-x="410" 
d="M236 219q-13 0 -19 32q-1 5 -13 77t-21 121q-15 87 -34 162q-2 11 -11 37l-10 29q-3 8 1 13q19 25 86 51t110 26q13 0 13 -12q0 -10 -20 -130q-12 -65 -32 -195t-28 -170q-9 -41 -22 -41zM236 -17q-42 0 -63.5 26.5t-21.5 59.5q0 34 21.5 59.5t63.5 25.5q37 0 61 -23
t24 -59q0 -38 -24 -63.5t-61 -25.5z" />
    <glyph glyph-name="quotedbl" unicode="&#x22;" horiz-adv-x="448" 
d="M121 820q76 0 76 -20q0 -5 -11 -35t-26.5 -89.5t-23.5 -129.5q-3 -30 -14 -30t-14 30q-7 73 -22 132t-27 88.5t-12 33.5q0 20 74 20zM318 820q75 0 75 -20q0 -3 -12 -33t-27 -90t-21 -131q-3 -30 -14 -30t-15 30q-7 73 -22.5 133t-27 89t-11.5 32q0 20 75 20z" />
    <glyph glyph-name="numbersign" unicode="#" horiz-adv-x="678" 
d="M617 456h-124l-20 -134h118v-109h-134l-32 -213h-76l31 213h-140l-31 -213h-78l31 213h-115v109h131l20 134h-123v111h139l28 187h77l-27 -187h140l28 187h77l-28 -187h108v-111zM396 322l20 134h-140l-20 -134h140z" />
    <glyph glyph-name="dollar" unicode="$" horiz-adv-x="667" 
d="M261 -85l9 85q-17 0 -65 8t-73 19q-24 11 -31 20.5t-7 34.5q-1 64 16 129q6 22 15 22q8 0 8 -23q-3 -59 29 -97q24 -28 58 -41.5t54 -13.5l28 253q-102 64 -142.5 119t-40.5 130q1 92 69.5 144.5t164.5 54.5l9 80q1 6 9 7l43 9q4 1 6 -0.5t1 -5.5l-11 -90q51 -3 90 -13
q23 -5 47 -12q13 -6 13 -19q0 -20 -6 -66t-10 -63q-4 -18 -12 -18q-9 0 -9 21q0 53 -43 89q-14 12 -39.5 20.5t-34.5 8.5l-27 -241q101 -56 148 -113t47 -129q0 -48 -16.5 -87t-42 -64t-58.5 -42t-65.5 -24t-63.5 -7l-9 -81q-1 -6 -10 -8l-41 -6q-4 -1 -6 1.5t-1 8.5z
M324 503l22 204q-35 0 -66 -24t-31 -70q0 -25 11.5 -46.5t23.5 -32t40 -31.5zM359 273l-23 -215q43 3 71 28t28 70q1 38 -17 62.5t-59 54.5z" />
    <glyph glyph-name="percent" unicode="%" horiz-adv-x="966" 
d="M722 0q-90 0 -141 57t-51 126q0 80 50 139t146 59q91 0 140 -56.5t49 -126.5q0 -80 -49 -139t-144 -59zM727 45q40 0 59.5 39t19.5 101q0 60 -22.5 105.5t-64.5 45.5q-41 0 -60.5 -39t-19.5 -101q0 -58 24 -104.5t64 -46.5zM358 -4l-64 -8q-9 -2 -11.5 0t0.5 11l309 715
q-167 -11 -211 -15v-2q23 -20 39 -55.5t16 -75.5q0 -78 -51 -138t-145 -60q-62 0 -106.5 30t-63.5 70.5t-19 83.5q0 79 52.5 138.5t149.5 59.5q85 0 180.5 6t159 11.5t69.5 5.5q10 0 10 -6q0 -2 -11 -30l-293 -729q-5 -11 -10 -12zM248 413q79 0 79 140q0 67 -22.5 109.5
t-62.5 42.5t-60.5 -40t-20.5 -100t23 -106t64 -46z" />
    <glyph glyph-name="ampersand" unicode="&#x26;" horiz-adv-x="921" 
d="M343 -17q-81 0 -140 22t-89.5 57.5t-44.5 72.5t-14 76q0 138 169 219q-47 66 -47 147q0 78 68 134t193 56q83 0 139 -23q20 -9 20 -29q0 -23 -11 -137q-3 -20 -12 -20q-10 0 -10 20q-2 49 -34 87q-40 46 -103 46q-35 0 -61.5 -21t-26.5 -71q0 -64 66 -147q17 -21 85 -98
q7 -8 160 -161q51 80 51 152q0 34 -26 48q-14 9 -37 11q-18 4 -18 12q0 9 22 9q80 0 144 -10q17 -3 24.5 -9.5t8.5 -23.5q1 -49 -30.5 -114.5t-83.5 -120.5q79 -71 133 -106q55 -37 96 -40q20 -3 20 -13q0 -11 -28 -11q-6 0 -84 1t-85 1q-67 0 -106.5 12t-83.5 45
q-94 -73 -224 -73zM410 73q63 0 107 27q-131 123 -256 277q-28 -32 -28 -104q0 -91 51.5 -145.5t125.5 -54.5z" />
    <glyph glyph-name="quotesingle" unicode="'" horiz-adv-x="251" 
d="M125 820q76 0 76 -20q0 -5 -11 -35t-26.5 -89.5t-23.5 -129.5q-3 -30 -14 -30t-14 30q-7 73 -22 132t-27 88.5t-12 33.5q0 20 74 20z" />
    <glyph glyph-name="parenleft" unicode="(" horiz-adv-x="420" 
d="M197 355q0 -295 153 -448q10 -10 10 -17t-8 -7q-7 0 -17 6q-32 19 -61.5 41.5t-70 64t-69 88t-49 115t-20.5 143.5q0 73 21.5 141.5t50.5 116t70.5 91.5t70 66.5t59.5 43.5q8 6 15 6q5 0 5 -5q0 -6 -8 -14q-152 -155 -152 -432z" />
    <glyph glyph-name="parenright" unicode=")" horiz-adv-x="420" 
d="M223 335q0 299 -153 448q-10 13 -10 16q0 7 8 7q7 0 17 -6q32 -20 61.5 -42t70 -63.5t69 -88t49 -114.5t20.5 -143q0 -73 -21.5 -141.5t-50.5 -116t-70.5 -91.5t-70 -67t-59.5 -44q-8 -6 -14 -6t-6 6q0 4 8 14q152 155 152 432z" />
    <glyph glyph-name="asterisk" unicode="*" horiz-adv-x="402" 
d="M241 794q0 -55 -34 -133q-3 -7 -1 -9t7 1q52 19 93 63q11 9 13 9q6 0 19.5 -31t13.5 -49q0 -9 -14 -12q-26 -4 -119 2q-12 0 -5 -10q10 -16 42.5 -37.5t46.5 -24.5q14 -5 14 -12q0 -14 -26 -38t-39 -24q-10 0 -18 17q-14 27 -37 104q-7 11 -11 2q-15 -30 -28 -74
q-6 -21 -7 -33q-1 -6 -15 -6q-29 0 -54 6.5t-25 13.5q0 8 9 18q27 35 105 87q2 1 2.5 3.5t-1 5t-4.5 2.5q-54 7 -92 1q-3 0 -6.5 -1t-5.5 -1.5t-3 -0.5q-7 0 -10 31.5t-1 51.5q1 11 13 11q32 0 117 -73q8 -6 8 6q0 13 -13 47.5t-20 49.5q-5 10 -5 14q0 9 31.5 22.5
t49.5 13.5q10 0 10 -13z" />
    <glyph glyph-name="plus" unicode="+" horiz-adv-x="693" 
d="M600 312h-203v-214h-99v214h-206v98h205v208h99v-208h204v-98z" />
    <glyph glyph-name="comma" unicode="," horiz-adv-x="296" 
d="M64 83q0 21 37 54.5t72 33.5q24 0 41.5 -32.5t17.5 -70.5q0 -106 -128 -220q-28 -24 -39 -24q-7 0 -7 7q0 6 17 23q57 65 57 126q0 43 -53 85q-15 12 -15 18z" />
    <glyph glyph-name="hyphen" unicode="-" horiz-adv-x="405" 
d="M76 366h252q42 0 42 -11q0 -13 -57 -28q-157 -40 -215 -63q-11 -5 -23.5 -11.5t-19.5 -9.5t-12 -3q-10 0 -6 20l15 87q2 13 6 16t18 3z" />
    <glyph glyph-name="period" unicode="." horiz-adv-x="296" 
d="M147 -7q-40 0 -63 27t-23 60q0 35 23 62t64 27q38 0 62.5 -24t24.5 -62t-25.5 -64t-62.5 -26z" />
    <glyph glyph-name="slash" unicode="/" horiz-adv-x="544" 
d="M64 27l355 727q7 15 14 15t23.5 -9t24.5 -16q6 -4 -1 -17l-360 -736q-6 -11 -11 -11q-3 0 -22 10t-25 16t2 21z" />
    <glyph glyph-name="zero" unicode="0" horiz-adv-x="721" 
d="M665 399q0 -199 -83.5 -307.5t-227.5 -108.5q-67 0 -121 26.5t-86 67t-53.5 92.5t-29.5 99t-8 91q0 184 81 296t231 112q95 0 164 -53t101 -135t32 -180zM487 363q0 70 -7.5 129.5t-23 109t-43 77.5t-65.5 28q-113 0 -113 -311q0 -64 7.5 -123.5t23.5 -113t44.5 -85.5
t65.5 -32q55 0 83 86t28 235z" />
    <glyph glyph-name="one" unicode="1" horiz-adv-x="462" 
d="M326 497v-196q0 -191 4 -223q3 -27 12 -40.5t32 -16.5q9 -1 23 -2t17 -1q16 -2 16 -11q0 -10 -19 -10q-33 0 -73 0.5t-67.5 1.5t-29.5 1t-34.5 -1t-76 -1.5t-71.5 -0.5q-19 0 -19 10q0 9 16 11q27 2 49 4q26 4 35 18.5t11 45.5q3 66 3 215v273q0 45 -16 45t-63 -15
q-21 -8 -27 -8q-9 0 -9 7q0 8 11 14q51 28 246 149q18 12 26 12q9 0 9 -17q0 -1 -0.5 -15t-1.5 -38t-1.5 -54t-1 -72t-0.5 -85z" />
    <glyph glyph-name="two" unicode="2" horiz-adv-x="642" 
d="M453 0h-412q-17 0 -17 13q0 2 0.5 4t2.5 4l3.5 3.5l4.5 4.5t5.5 5l7 5.5t7.5 6.5q2 2 46.5 38.5t68.5 58t68 69.5t68 88.5t44 98t20 113.5q0 194 -134 194q-64 0 -101 -40q-31 -35 -34 -86q-3 -28 -13 -28t-11 25q-6 54 -6 126q0 17 12 25q84 39 203 39q138 0 204 -60
t66 -162q0 -33 -6.5 -64.5t-21.5 -61t-29 -53.5t-39.5 -51l-42 -44t-48 -42l-45 -35.5t-46.5 -34l-40 -28.5q-4 -3 -3 -5t5 -2h55q100 0 176 8q49 5 70.5 23.5t32.5 56.5q4 18 13 18t9 -19q0 -14 -10 -86t-18 -95q-7 -20 -27.5 -25t-87.5 -5z" />
    <glyph glyph-name="three" unicode="3" horiz-adv-x="654" 
d="M248 -17q-120 0 -168 27q-23 10 -25 35q-3 68 6 136q3 20 12 20t11 -18q2 -62 49 -101t110 -39q74 0 120 41.5t46 123.5q0 156 -158 184q-32 6 -32 20q0 9 19 14q68 14 106 48.5t38 103.5q0 60 -33 93.5t-97 33.5q-66 0 -100 -32t-39 -75q-2 -22 -12 -22q-8 0 -10 21
q-7 56 -7 107q0 17 18 25q86 38 209 38q71 0 122.5 -15t77 -40t37 -51.5t11.5 -55.5q0 -36 -17.5 -66.5t-45.5 -50t-53.5 -31t-49.5 -17.5q-4 -2 0 -4q36 -7 68 -20.5t63.5 -35.5t50 -58t18.5 -81q0 -105 -95 -181.5t-250 -76.5z" />
    <glyph glyph-name="four" unicode="4" horiz-adv-x="693" 
d="M364 181q-220 0 -296 4q-34 3 -34 16t22 41q37 51 189 236.5t211 246.5q24 26 33.5 34t18.5 8q8 0 11 -8t3 -33v-21t-0.5 -44t-0.5 -61v-320h56q60 1 75 10q13 5 13 -7q1 -9 -7.5 -40.5t-16.5 -44.5q-8 -15 -34 -15q-24 -2 -86 -2q0 -27 3 -99q2 -20 4 -29t11.5 -18.5
t26.5 -12.5q19 -4 36 -4q16 -2 16 -10q0 -11 -18 -11q-33 0 -93.5 1.5t-67.5 1.5q-16 0 -70 -1.5t-84 -1.5q-19 0 -19 10q0 9 16 11q16 0 32 2q21 2 31.5 12t13 20t3.5 30q2 28 2 99zM364 280v240l-186 -239q19 -1 186 -1z" />
    <glyph glyph-name="five" unicode="5" horiz-adv-x="625" 
d="M392 616h-210l-12 -92q190 -21 292 -84.5t102 -185.5q0 -51 -21.5 -97.5t-64 -86.5t-116.5 -63.5t-170 -23.5q-74 0 -117 17q-14 8 -18 17t-4 29q0 66 4 134q3 21 12 21q11 0 11 -19q1 -62 43.5 -99.5t105.5 -37.5q65 0 113 39t48 119q0 42 -21 76.5t-48.5 55t-70 37
t-69 22.5t-61.5 13q-24 3 -23 23l33 299q1 21 17 21h291q40 0 59 3q4 1 10.5 2t7.5 1q3 0 5 -0.5t4 -1.5t3 -4.5t1 -9.5q0 -77 -16 -169q-4 -18 -11 -18q-8 0 -11 17q-2 25 -21.5 35.5t-76.5 10.5z" />
    <glyph glyph-name="six" unicode="6" horiz-adv-x="703" 
d="M364 -17q-134 0 -221 80t-87 225q0 175 134.5 303.5t342.5 171.5q13 4 28 4q12 0 12 -8q0 -10 -31 -22q-136 -53 -218 -162.5t-82 -284.5q0 -114 34.5 -183.5t98.5 -69.5q98 0 98 156q0 95 -38.5 145t-101.5 50q-29 0 -51 -6q-15 -3 -15 6q0 7 13 17q76 54 163 54
q95 0 151 -62.5t56 -145.5q0 -120 -83.5 -194t-202.5 -74z" />
    <glyph glyph-name="seven" unicode="7" horiz-adv-x="606" 
d="M252 750h317q21 0 27.5 -2t6.5 -8q0 -8 -6 -17q-69 -108 -154.5 -322t-93.5 -310q-1 -18 0 -41q1 -19 -59.5 -43t-110.5 -24q-19 0 -19 13t9 40q25 77 112.5 248t183.5 331h-251q-85 0 -112 -19q-26 -17 -34 -61q-4 -18 -13 -18t-9 20q0 25 8.5 117t8.5 93q0 12 10 12
q1 0 6.5 -1t17 -2.5t30 -2.5t51.5 -2t74 -1z" />
    <glyph glyph-name="eight" unicode="8" horiz-adv-x="682" 
d="M446 439q88 -46 135 -97.5t47 -126.5q0 -98 -80.5 -165t-214.5 -67q-129 0 -204.5 54.5t-75.5 145.5q0 68 46.5 110.5t125.5 75.5q-138 72 -138 197q0 81 66.5 141t202.5 60q106 0 172 -45t66 -118q0 -37 -14 -66t-41 -48.5t-46 -29.5t-47 -21zM273 343q-69 -60 -69 -152
q0 -66 42.5 -109t102.5 -43q50 0 84 28t34 86q0 29 -12.5 53.5t-43.5 49t-57.5 41t-80.5 46.5zM393 466q58 46 58 127q0 53 -33.5 86t-79.5 33q-49 0 -76 -27t-27 -67q0 -42 37.5 -77.5t120.5 -74.5z" />
    <glyph glyph-name="nine" unicode="9" horiz-adv-x="685" 
d="M343 767q96 0 162.5 -44.5t95 -110t28.5 -143.5q0 -80 -28 -153.5t-73.5 -128t-104 -98t-119 -70t-119.5 -37.5q-20 -4 -27 -4q-13 0 -13 7q0 6 19 15q127 63 204 189t77 267q0 124 -32 190t-92 66q-45 0 -71.5 -39.5t-26.5 -108.5q0 -94 37.5 -141t88.5 -47q23 0 36 4
q18 4 21 4q8 0 8 -6q0 -5 -5 -10q-54 -60 -147 -60q-97 0 -153 58t-56 150q0 103 79.5 177t210.5 74z" />
    <glyph glyph-name="colon" unicode=":" horiz-adv-x="336" 
d="M167 -17q-41 0 -63.5 26t-22.5 61t23 62t64 27q38 0 62.5 -24t24.5 -62q0 -40 -25 -65t-63 -25zM167 338q-40 0 -63 27.5t-23 60.5q0 34 23 61.5t64 27.5q38 0 62.5 -24t24.5 -63q0 -38 -25.5 -64t-62.5 -26z" />
    <glyph glyph-name="semicolon" unicode=";" horiz-adv-x="336" 
d="M167 338q-40 0 -63 27.5t-23 60.5q0 34 23 61.5t64 27.5q38 0 62.5 -24t24.5 -63q0 -38 -25.5 -64t-62.5 -26zM76 83q0 21 37.5 54.5t72.5 33.5q23 0 40.5 -32t17.5 -71q0 -108 -128 -220q-28 -24 -38 -24q-7 0 -7 7q0 4 16 23q57 65 57 127q0 43 -53 84q-15 11 -15 18z
" />
    <glyph glyph-name="less" unicode="&#x3c;" horiz-adv-x="628" 
d="M535 78l-443 228v89l443 226v-107l-339 -164l339 -166v-106z" />
    <glyph glyph-name="equal" unicode="=" horiz-adv-x="693" 
d="M600 170h-508v99h508v-99zM600 395h-508v98h508v-98z" />
    <glyph glyph-name="greater" unicode="&#x3e;" horiz-adv-x="628" 
d="M92 622l443 -228v-89l-443 -226v107l340 164l-340 166v106z" />
    <glyph glyph-name="question" unicode="?" horiz-adv-x="619" 
d="M324 767q58 0 102.5 -11t69.5 -28t41 -40.5t21.5 -44t5.5 -42.5q0 -15 -2.5 -29.5t-5 -26t-10.5 -25.5t-12 -22.5t-17 -23l-18.5 -21t-23 -23l-23.5 -22l-28 -24.5t-28 -25q-62 -55 -62 -85q0 -16 11 -40q6 -12 6 -18q0 -7 -9 -7q-19 0 -66 32q-58 42 -58 84q0 20 18 49
q13 19 67 80q50 58 68 89.5t18 67.5q0 42 -26 67.5t-76 25.5q-68 0 -109 -48q-29 -34 -36 -85q-3 -16 -11 -16t-10 17q-5 42 -5 132q0 10 12 17q78 46 196 46zM310 -17q-41 0 -62 26t-21 59q0 32 22 59t63 27q37 0 60.5 -22.5t23.5 -58.5q0 -38 -24 -64t-62 -26z" />
    <glyph glyph-name="at" unicode="@" horiz-adv-x="946" 
d="M736 193q-76 -55 -147 -55q-48 0 -68.5 41t-9.5 121q-44 -63 -104.5 -112.5t-107.5 -49.5q-24 0 -38.5 18.5t-18 36.5t-3.5 36q0 79 39.5 155.5t105.5 125.5q36 26 83.5 44.5t86.5 18.5q30 0 52 -5q49 20 65 22q8 1 10.5 -2.5t0.5 -9.5q-21 -57 -39.5 -139t-18.5 -146
q0 -79 52 -79q51 0 99.5 62t48.5 170q0 116 -81.5 195.5t-219.5 79.5q-162 0 -267.5 -117.5t-105.5 -315.5q0 -146 82 -229.5t218 -83.5q165 0 272 92q24 18 27 4q0 -11 -22 -32q-45 -46 -130 -81t-176 -35q-149 0 -250 92.5t-101 263.5q0 99 40.5 190t106.5 155.5
t151 102.5t172 38q161 0 248.5 -84t87.5 -221q0 -164 -140 -267zM563 512q-16 16 -61 16q-39 0 -64 -19.5t-44 -70.5q-24 -65 -24 -145q0 -60 25 -60q24 0 61.5 45t64.5 108q4 10 18 55.5t24 70.5z" />
    <glyph glyph-name="A" unicode="A" horiz-adv-x="744" 
d="M439 204h-229q-6 0 -9 -7l-31 -82q-16 -42 -16 -64q0 -27 30 -30q7 -1 20.5 -2.5t14.5 -1.5q18 0 18 -10t-21 -10q-22 0 -63 1.5t-69 1.5q-1 0 -49 -1.5t-78 -1.5q-20 0 -20 10t19 10q21 2 32 4q25 5 42 25.5t34 60.5l267 604q26 58 41 58q12 0 36 -50l262 -591
q25 -58 44.5 -80.5t46.5 -26.5q3 -1 32 -4q19 0 19 -10t-26 -10q-84 0 -276 3q-22 0 -22 9t14 12q17 3 12 18l-67 159q-1 6 -8 6zM239 284h171q8 0 5 5l-88 214q-4 8 -7 0l-85 -214q-2 -5 4 -5z" />
    <glyph glyph-name="B" unicode="B" horiz-adv-x="779" 
d="M156 315v148q0 143 -2 207q-1 56 -44 60q-4 0 -17.5 1t-19.5 2q-18 1 -18 10q0 10 20 10q32 0 84.5 -1.5t75.5 -1.5q36 0 92 1.5t72 1.5q60 0 106.5 -11t73 -27t43.5 -38t22.5 -40.5t5.5 -37.5q0 -104 -122 -167q194 -59 194 -217q0 -90 -81 -155.5t-222 -65.5
q-19 0 -95 3t-90 3q-21 0 -69 -1.5t-76 -1.5q-21 0 -21 10t20 10q20 2 30 4q28 5 32 55q6 82 6 239zM329 675v-223q0 -8 9 -10q21 -4 63 -4q41 0 60 16q33 27 33 95q0 64 -31 106.5t-88 42.5q-23 0 -36 -5q-10 -3 -10 -18zM329 374v-81q0 -135 2 -169q2 -25 7 -36.5
t19 -18.5q27 -16 66 -16q45 0 79.5 33.5t34.5 102.5q0 99 -59 154q-36 34 -93 38q-31 2 -50 0q-6 0 -6 -7z" />
    <glyph glyph-name="C" unicode="C" horiz-adv-x="820" 
d="M544 -17q-232 0 -363 110q-126 108 -126 294q0 66 28 143t96 134q64 54 143 78.5t188 24.5q64 0 142 -12q79 -12 99 -13q11 -1 11 -13q0 -3 -1 -12t-2 -24.5t-2 -29.5q-1 -16 -1.5 -60t-1.5 -57q-2 -24 -12 -24t-12 21q-3 59 -38 98q-60 63 -202 63q-92 0 -147 -48
q-88 -76 -88 -253q0 -155 77 -249.5t203 -94.5q68 0 106.5 10t65.5 41q21 23 33 67q7 28 16 28q8 0 8 -18q0 -46 -22 -152q-3 -21 -26 -29q-58 -23 -172 -23z" />
    <glyph glyph-name="D" unicode="D" horiz-adv-x="946" 
d="M156 287v176q0 175 -2 207q-2 27 -10.5 42t-34.5 18q-3 0 -15 1t-22 2q-19 1 -19 11q0 9 23 9q10 0 73.5 -1.5t87.5 -1.5q15 0 35.5 0.5t57.5 1t69 0.5q141 -1 236.5 -26t159.5 -90q96 -96 96 -254q0 -85 -31.5 -157.5t-78.5 -116.5q-117 -119 -342 -119q-63 0 -107 4
q-68 7 -99 7q-48 0 -76 -1q-56 -2 -69 -2q-20 0 -20 10t19 10q16 1 31 4q29 4 33 61q5 80 5 205zM333 479v-128q0 -156 2 -194q3 -58 17 -72q29 -36 103 -36q115 0 182 70q65 65 65 235q0 127 -75 229q-84 109 -230 109q-40 0 -54 -8q-9 -4 -9 -18q1 -18 0 -84.5t-1 -102.5z
" />
    <glyph glyph-name="E" unicode="E" horiz-adv-x="684" 
d="M156 287v176q0 167 -3 215q-3 44 -36 52q-5 1 -18.5 2t-14.5 1q-18 1 -18 11q0 9 22 9q30 0 79.5 -1.5t69.5 -1.5q11 0 143 0.5t139 0.5q34 0 54 4q14 4 16 4q6 0 6 -9q0 -2 -0.5 -6.5t-2 -15t-2.5 -22.5q-3 -20 -8 -107q0 -14 -10 -14q-8 0 -10 14q0 17 -5 35
q-4 19 -18 28t-48 12q-55 5 -150 5q-8 0 -8 -10v-220q0 -12 8 -12q48 -2 145 1q38 2 51.5 6t21.5 17q9 13 14 13q6 0 6 -12q0 -4 -1.5 -16.5t-3.5 -32.5t-3 -36q-1 -23 -1 -83q0 -19 -9 -19q-7 0 -11 16l-3 23q-3 23 -17.5 35t-49.5 14q-56 4 -141 4q-6 0 -6 -13v-69v-38
v-52v-41q1 -54 23 -70t103 -16q62 0 93 12q21 8 31.5 26t17.5 53q3 18 12 18t9 -22q0 -27 -6 -72t-10 -62q-5 -19 -13.5 -23t-37.5 -4q-73 0 -171.5 3t-146.5 3q-23 0 -69.5 -1.5t-74.5 -1.5q-24 0 -24 10t20 10q21 2 30 4q19 3 25.5 27t8.5 78q3 60 3 161z" />
    <glyph glyph-name="F" unicode="F" horiz-adv-x="646" 
d="M156 287v176q0 159 -3 207q-2 28 -10 41.5t-28 17.5q-8 2 -34 4q-20 0 -20 10t23 10q31 0 82 -1.5t71 -1.5q12 0 149 0.5t145 0.5q29 0 51 5q10 3 19 3q8 0 6 -9q-7 -46 -7 -51q-5 -60 -7 -96q-1 -17 -11 -17q-8 0 -10 16q-2 20 -4 31q-10 37 -66 41q-62 5 -161 5
q-8 0 -8 -11v-227q0 -12 8 -12q42 -1 138 1q44 2 58 5.5t23 17.5q9 13 14 13q7 0 7 -13q0 -4 -3.5 -33t-4.5 -48q-2 -44 -2 -84q0 -20 -9 -20q-10 0 -10 17q-2 14 -3 22q-3 22 -17.5 34t-48.5 15q-44 3 -144 3q-6 0 -6 -13v-69q0 -159 5 -201q3 -25 11.5 -38t34.5 -17
q14 -2 34 -4q22 0 22 -9q0 -11 -22 -11t-66 1.5t-103 1.5q-41 0 -94.5 -1.5t-60.5 -1.5q-21 0 -21 10q0 9 18 10q9 1 26 4q19 3 25.5 19.5t9.5 51.5q4 54 4 195z" />
    <glyph glyph-name="G" unicode="G" horiz-adv-x="914" 
d="M796 165v-72q0 -44 -3 -55.5t-17 -16.5q-41 -16 -110 -27t-135 -11q-219 0 -347.5 99.5t-128.5 292.5q0 117 51 199.5t129 126.5q111 66 287 66q76 0 162 -14l43 -6t53 -6q11 0 10 -13q-11 -55 -11 -184q0 -21 -11 -21q-10 0 -12 16q-4 31 -12 50q-15 52 -80 84t-167 32
q-115 0 -179 -72q-63 -71 -63 -216q0 -55 10.5 -107t33.5 -100.5t57 -84t84 -57t111 -21.5q40 0 56 12q12 9 12 27v61q0 80 -1 117q0 42 -10.5 60.5t-36.5 22.5q-6 1 -12.5 1.5t-15.5 1.5t-15 2q-16 0 -16 10t21 10q37 0 98.5 -1.5t70.5 -1.5q16 0 71 1.5t84 1.5
q23 0 23 -10q0 -8 -16 -10q-2 0 -6.5 -0.5t-10.5 -1.5t-10 -1q-19 -4 -27.5 -15t-10.5 -36q-3 -48 -3 -133z" />
    <glyph glyph-name="H" unicode="H" horiz-adv-x="986" 
d="M339 445h312q6 0 6 7v21q0 172 -2 204q-2 23 -11 35.5t-32 17.5q-2 0 -35 3q-19 0 -19 10t20 10q26 0 63 -0.5t64.5 -1.5t30.5 -1l70 2q71 1 97 1q20 0 20 -10t-15 -10q-6 -1 -13 -1.5t-12 -1t-10 -1.5q-33 -5 -37 -53q-2 -32 -2 -213v-176q0 -169 5 -211q2 -26 11 -38.5
t30 -16.5q8 -1 25.5 -2.5t18.5 -1.5q17 0 17 -10t-20 -10q-41 0 -113 1.5t-75 1.5q-4 0 -59 -1.5t-84 -1.5q-22 0 -22 11q0 9 19 9q24 2 31 4q17 4 24 17t9 39q6 63 6 200v81q0 6 -6 6h-312q-6 0 -6 -6v-104q0 -125 5 -179q5 -47 42 -53q23 -3 42 -5q19 0 19 -10t-20 -10
q-25 0 -69 0.5t-78.5 1.5t-37.5 1q-2 0 -64.5 -1.5t-81.5 -1.5q-22 0 -22 9q0 11 17 11q11 1 31 4q31 4 35 59q5 70 5 207v174q0 162 -3 210q-2 27 -12.5 41t-35.5 18q-6 1 -28 3q-20 1 -20 11q0 9 22 9q33 0 92 -1.5t66 -1.5q18 0 80.5 1.5t84.5 1.5q21 0 21 -10t-18 -10
q-26 -2 -35 -4q-19 -4 -25.5 -18.5t-8.5 -39.5q-3 -32 -3 -198v-21q0 -7 6 -7z" />
    <glyph glyph-name="I" unicode="I" horiz-adv-x="489" 
d="M156 287v176q0 184 -3 216q-3 44 -35 50q-8 2 -30 4q-19 0 -19 11q0 9 22 9q18 0 52.5 -0.5t63 -1.5t30.5 -1q1 0 71.5 1.5t91.5 1.5q22 0 22 -10t-19 -10q-27 -3 -29 -3q-20 -4 -28.5 -15.5t-9.5 -38.5q-3 -32 -3 -213v-176q0 -161 5 -214q3 -43 38 -51q11 -2 44 -5
q21 0 21 -10t-21 -10q-30 0 -73.5 0.5t-76 1.5t-34.5 1q-1 0 -30.5 -1t-64 -1.5t-49.5 -0.5q-24 0 -24 10t20 10q20 2 31 4q26 4 31 54q6 63 6 212z" />
    <glyph glyph-name="J" unicode="J" horiz-adv-x="463" 
d="M337 463v-191q0 -203 -25 -274q-47 -129 -203 -221q-20 -12 -52 -26q-10 -6 -22 -6q-9 0 -9 8t23 22q29 18 53 45q39 43 48.5 112.5t9.5 274.5v256q0 183 -3 215q-3 46 -41 51q-7 1 -40 4q-19 0 -19 11q0 9 22 9q19 0 57.5 -0.5t70.5 -1.5t34 -1l71 2q72 1 94 1
q23 0 23 -9t-20 -11q-27 -3 -29 -3q-23 -4 -30.5 -18t-9.5 -42q-3 -48 -3 -207z" />
    <glyph glyph-name="K" unicode="K" horiz-adv-x="843" 
d="M329 463v-60q87 81 216 226q52 60 52 82q0 9 -5.5 13.5t-22.5 8.5q-17 2 -17 10q0 9 16 9q21 0 48.5 -1t57.5 -1q35 0 89 1t55 1q21 0 21 -9t-18 -10q-26 -3 -36 -6q-33 -7 -59.5 -26t-69.5 -60q-85 -81 -185 -189q29 -45 124 -161t147 -170q77 -79 105 -91
q23 -10 46 -13q21 -1 21 -11q0 -9 -20 -9h-98q-100 0 -145.5 13.5t-83.5 55.5q-43 46 -113.5 137.5t-124.5 171.5v-88q0 -159 5 -211q4 -49 43 -55l43 -4q17 0 17 -10t-19 -10q-29 0 -72.5 0.5t-75.5 1.5t-34 1q-1 0 -32.5 -1t-68 -1.5t-51.5 -0.5q-20 0 -20 10t18 10
q3 0 9.5 0.5t11.5 1t10 1.5q21 3 27.5 17t9.5 41q6 63 6 209v176q0 183 -3 215q-3 44 -37 51q-2 0 -38 4q-21 0 -21 11q0 9 27 9q19 0 55 -0.5t65.5 -1.5t31.5 -1q1 0 73 1.5t93 1.5t21 -9q0 -10 -18 -11q-2 0 -11.5 -1l-18.5 -2q-24 -3 -32.5 -17.5t-10.5 -42.5
q-3 -48 -3 -207z" />
    <glyph glyph-name="L" unicode="L" horiz-adv-x="671" 
d="M333 453v-167v-32.5v-30.5v-27t0.5 -25.5t1 -21.5t1.5 -20t2.5 -15.5t3.5 -13t5 -8.5q11 -15 33 -19.5t83 -4.5q85 0 115 16q36 17 52 84q5 19 13 19t8 -19q0 -20 -7 -73.5t-14 -73.5q-6 -19 -15.5 -23t-40.5 -4q-73 0 -180.5 3t-156.5 3q-23 0 -75 -1.5t-81 -1.5
q-22 0 -22 11q0 9 20 9q22 2 34 4q26 4 32 22t8 82q3 60 3 162v176q0 165 -3 213q-3 43 -34 52q-9 3 -39 5q-21 0 -21 10t30 10q31 0 81 -1.5t67 -1.5q1 0 74.5 1.5t94.5 1.5q24 0 24 -9q0 -11 -24 -11q-29 -3 -34 -4q-19 -4 -26.5 -17.5t-9.5 -41.5q-3 -48 -3 -217z" />
    <glyph glyph-name="M" unicode="M" horiz-adv-x="1057" 
d="M860 730l82 -604q6 -50 16.5 -71.5t34.5 -28.5q21 -6 57 -9q19 0 19 -10t-24 -10q-164 0 -278 6q-23 1 -23 12q0 7 11 10q12 4 14 13.5t-1 43.5l-36 358l-206 -386q-19 -36 -27 -46.5t-14 -10.5q-8 0 -15 9t-30 45q-19 31 -68.5 119.5t-65.5 114.5l-42.5 76t-37.5 69
l-29 -282q-4 -43 -4 -80q0 -22 8 -32t27 -14q18 -4 37 -5q18 0 18 -9q0 -11 -20 -11q-24 0 -70 1.5t-59 1.5q-15 0 -55.5 -1.5t-59.5 -1.5q-22 0 -22 10t20 10q2 0 13 1t17 2q21 4 31 24t18 71l91 615q5 39 21 39q8 0 15 -8t24 -33l286 -479l274 484q22 36 34 36
q14 0 19 -39z" />
    <glyph glyph-name="N" unicode="N" horiz-adv-x="943" 
d="M129 144q2 90 4 298t5 278q2 48 17 48q9 0 39 -24q14 -12 323 -295l198 -185l-6 375q-2 46 -10.5 65t-36.5 24q-13 3 -44 5q-18 0 -18 10t20 10t72.5 -1.5t72.5 -1.5q9 0 50 1.5t64 1.5q22 0 22 -9q0 -11 -17 -11q-20 -2 -25 -3q-25 -3 -34.5 -20t-11.5 -63
q-4 -89 -6 -189.5t-3.5 -223t-2.5 -189.5q0 -62 -20 -62t-112 81l-216 194l-229 216l10 -341q2 -58 8 -80t26 -29q7 -2 53 -7q20 -1 20 -10q0 -10 -24 -10q-18 0 -58.5 1.5t-70.5 1.5q-10 0 -62 -1.5t-74 -1.5t-22 10t19 10q2 0 14.5 1t18.5 2q28 4 36.5 27.5t10.5 96.5z
" />
    <glyph glyph-name="O" unicode="O" horiz-adv-x="951" 
d="M476 -17q-106 0 -189.5 35.5t-132.5 93t-74 124.5t-25 136q0 77 26 146.5t77 125.5t135 89.5t190 33.5q185 0 299 -108t114 -265q0 -179 -114 -295t-306 -116zM506 47q23 0 44 4.5t49 23t48 49t34.5 89t14.5 137.5q0 89 -23.5 166.5t-81 133t-141.5 55.5
q-195 0 -195 -288q0 -98 26 -180t84.5 -136t140.5 -54z" />
    <glyph glyph-name="P" unicode="P" horiz-adv-x="729" 
d="M156 287v176q0 183 -3 215q-3 44 -35 51q-6 1 -38 4q-18 0 -18 10t22 10q25 0 91 -1.5t71 -1.5q24 0 75.5 1.5t74.5 1.5q167 0 242 -69q54 -52 54 -133q0 -109 -83.5 -173t-195.5 -64q-21 0 -31 3q-11 4 -11 10q0 10 22 10q60 0 91.5 42.5t31.5 112.5q0 110 -49 163
q-38 41 -95 41q-15 0 -27 -2q-12 -3 -12 -25v-382q0 -169 5 -211q3 -47 39 -54q10 -2 44 -5q19 0 19 -11q0 -9 -20 -9q-30 0 -74 0.5t-76 1.5t-34 1q-1 0 -31.5 -1t-66 -1.5t-50.5 -0.5q-20 0 -20 10t19 10q20 2 30 4q15 3 22.5 15.5t10.5 40.5q6 63 6 210z" />
    <glyph glyph-name="Q" unicode="Q" horiz-adv-x="940" 
d="M592 -1q-66 -16 -128 -16q-106 0 -188.5 36.5t-130.5 95.5t-72 126t-24 137q0 73 26 140.5t76.5 124t134.5 90.5t190 34q188 0 301 -109.5t113 -264.5q0 -106 -44 -188.5t-118 -137.5l184 -100q238 -122 415 -122q110 0 183 33q18 6 21 6q7 0 7 -6q0 -8 -16 -19
q-159 -103 -359 -103q-100 0 -193 32t-214 108zM501 47q24 0 45 4.5t49 23t47.5 49.5t33.5 89.5t14 137.5q0 66 -14.5 127.5t-43 113t-77.5 82.5t-111 31q-39 0 -71 -13t-61.5 -43t-46 -89t-16.5 -143q0 -101 27 -183t85.5 -134.5t139.5 -52.5z" />
    <glyph glyph-name="R" unicode="R" horiz-adv-x="810" 
d="M156 287v176q0 111 -3 207q-1 30 -10 42.5t-28 16.5l-14.5 2t-15 1.5t-10.5 0.5q-18 1 -18 11q0 9 22 9q25 0 87.5 -1.5t65.5 -1.5q6 0 70.5 1.5t90.5 1.5q144 0 204 -34q40 -21 65.5 -60.5t25.5 -92.5q0 -118 -134 -201q140 -202 195 -265q39 -43 61.5 -60t43.5 -20
q5 -1 9 -1.5t8.5 -1t7.5 -0.5q17 0 17 -10t-20 -10h-90q-132 0 -182 33q-41 24 -103 125l-37.5 62.5l-30.5 51.5t-19 30q-4 6 -12 6h-66q-8 0 -8 -8v-51q0 -126 5 -168q4 -47 39 -55q8 -2 45 -6q18 -1 18 -11q0 -9 -21 -9q-30 0 -73.5 0.5t-76 1.5t-33.5 1q-3 0 -63 -1.5
t-80 -1.5t-20 10t18 10q27 3 34 4q27 7 31 57q5 53 5 209zM328 674v-278q0 -10 9 -15q25 -13 77 -13q42 0 63 16q39 30 39 126q0 50 -14.5 87.5t-37.5 56t-45.5 27t-44.5 8.5q-31 0 -40 -4q-6 -3 -6 -11z" />
    <glyph glyph-name="S" unicode="S" horiz-adv-x="576" 
d="M243 -17q-106 0 -167 28q-22 9 -22 40q0 91 6 147q3 24 12 24q7 0 9 -17q2 -18 5 -31q12 -59 60.5 -94t109.5 -35q65 0 94.5 27t29.5 65q0 37 -17.5 66t-75.5 69l-62 43q-88 62 -122 118.5t-34 125.5q0 89 69 148.5t186 59.5q62 0 115 -10q27 -5 49 -12q13 -4 13 -14
q-4 -64 -4 -141q0 -25 -11 -25q-9 0 -11 19q-3 34 -18 58q-16 27 -51.5 46.5t-85.5 19.5q-57 0 -84.5 -26.5t-27.5 -65.5q0 -65 80 -119l51 -34q105 -70 144.5 -125t39.5 -131q0 -119 -106 -181q-71 -43 -174 -43z" />
    <glyph glyph-name="T" unicode="T" horiz-adv-x="745" 
d="M459 679v-392q0 -171 5 -213q4 -46 39 -52q5 -1 43 -5q20 -1 20 -11q0 -9 -23 -9q-41 0 -110 1.5t-71 1.5q-6 0 -67 -1.5t-80 -1.5q-23 0 -23 10t20 10q22 2 32 4q27 5 32 55q6 63 6 211v392q-118 0 -151 -2q-42 -2 -61.5 -13.5t-29.5 -37.5q-5 -11 -9 -23
q-4 -16 -12 -16q-10 0 -8 20q3 29 22 133q3 25 11 25q3 0 6 -1t11 -3t17 -4q31 -7 111 -7h435q35 0 63 4q6 1 13 2.5t11 2.5t7 1q7 0 8.5 -6t1.5 -25q0 -8 -3.5 -65t-3.5 -67q-1 -20 -10 -20t-11 18t-2 20q-3 26 -20 41t-58 18q-55 5 -161 5z" />
    <glyph glyph-name="U" unicode="U" horiz-adv-x="875" 
d="M302 463v-150q0 -102 17 -153.5t59 -81.5q43 -28 100 -28q67 0 110 37q20 17 32 43.5t17 66.5t6 67t1 79v120q0 173 -2 205q-2 30 -10.5 43.5t-32.5 17.5q-4 1 -37 4q-18 0 -18 10t23 10q34 0 82.5 -1.5t51.5 -1.5q5 0 54.5 1.5t77.5 1.5q21 0 21 -10q0 -9 -17 -10
q-21 -2 -31 -4q-20 -4 -28 -17t-10 -44q-3 -48 -3 -205v-98q0 -42 -1 -70t-7 -67t-16 -67.5t-30 -58.5t-48 -53q-79 -66 -208 -66q-161 0 -238 67q-93 77 -93 261v152q0 183 -3 215q-2 22 -8 32.5t-23 15.5q-9 3 -43 7q-21 1 -21 11q0 9 27 9q26 0 89 -1l64 -2l71 2
q71 1 92 1q22 0 22 -9q0 -10 -18 -11q-29 -3 -33 -4q-19 -4 -26 -18t-9 -41q-3 -48 -3 -207z" />
    <glyph glyph-name="V" unicode="V" horiz-adv-x="739" 
d="M315 43l-262 609q-20 45 -33.5 59t-39.5 19q-12 3 -23 3q-16 3 -16 11q0 9 21 9q29 0 81.5 -1.5t70.5 -1.5q12 0 67.5 1.5t99.5 1.5q23 0 23 -10t-15 -10q-22 -2 -27 -3q-30 -5 -30 -25q0 -18 23 -76l155 -388q126 282 178 431q8 18 8 33q0 19 -24 23q-9 2 -40 5
q-18 1 -18 10q0 10 22 10q39 0 84 -1.5t46 -1.5q6 0 50 1.5t61 1.5q22 0 22 -10t-18 -10q-31 -3 -44 -9q-16 -7 -29 -26t-34 -64l-133 -294q-87 -193 -133 -285q-21 -44 -31.5 -58t-20.5 -14t-18 12t-23 48z" />
    <glyph glyph-name="W" unicode="W" horiz-adv-x="1115" 
d="M290 45l-222 610q-13 35 -23.5 51t-26.5 21q-8 2 -19.5 4t-12.5 2q-16 1 -16 11q0 9 21 9q37 0 90 -1.5t55 -1.5q8 0 63 1.5t86 1.5q21 0 21 -10t-16 -10q-16 -2 -25 -4q-18 -3 -18 -22q0 -11 24 -90q67 -220 119 -355l177 453q14 36 28 36q3 0 5.5 -1t4.5 -3.5l4 -5
t4.5 -7t4.5 -8.5l5 -10.5t6 -11.5l200 -443q51 147 109 353q20 68 20 85t-11.5 23.5t-49.5 10.5q-17 0 -17 9q0 11 21 11q28 0 57 -0.5t47 -1.5t20 -1l46 1q46 1 67 1q20 0 20 -9q0 -10 -16 -10q-21 -2 -32 -5q-21 -4 -35 -27t-35 -79l-211 -578q-22 -61 -40 -61
q-9 0 -16.5 10.5t-20.5 39.5l-200 429q-106 -263 -180 -422q-25 -57 -44 -57q-9 0 -16.5 12.5t-21.5 49.5z" />
    <glyph glyph-name="X" unicode="X" horiz-adv-x="755" 
d="M104 93l196 269l-172 281q-26 44 -44.5 62t-51.5 24l-29 4q-15 1 -15 11q0 9 22 9q6 0 24 -0.5l53 -1.5t82 -1q5 0 65 1.5t91 1.5q22 0 22 -9t-17 -11q-20 -2 -25 -4q-14 -4 -14 -17q0 -14 20 -47l61.5 -104.5t43.5 -73.5q53 76 118 183q17 26 17 41q0 14 -23 18
q-11 2 -34 4q-15 0 -15 10t20 10q22 0 66 -1.5t54 -1.5q11 0 52.5 1.5t66.5 1.5q19 0 19 -9q0 -11 -19 -11q-18 -2 -26 -4q-22 -5 -39.5 -20.5t-50.5 -61.5l-165 -225q177 -295 227 -361q26 -33 60 -39q15 -3 36 -5q17 0 17 -10t-20 -10q-199 0 -296 5q-20 1 -20 10
q0 7 12 10q19 6 9 24l-42 75.5l-57.5 100l-39.5 68.5l-134 -211q-16 -26 -16 -40q2 -16 25 -19q2 0 26 -3q19 0 19 -11q0 -10 -20 -10q-9 0 -66 2t-77 2q-19 0 -64 -1.5t-50 -1.5q-19 0 -19 10t17 10q20 0 33 4q43 10 87 72z" />
    <glyph glyph-name="Y" unicode="Y" horiz-adv-x="706" 
d="M266 179v77q0 26 -4 45.5t-8.5 30t-15.5 31.5q-27 50 -85.5 147.5t-84.5 136.5q-29 45 -43.5 59.5t-37.5 21.5q-8 3 -26 5q-15 1 -15 11q0 9 20 9q21 0 78 -1.5t76 -1.5q3 0 54.5 1.5t88.5 1.5q19 0 19 -8q0 -9 -20 -13q-31 -3 -31 -21q0 -10 10 -29l157 -281
q123 232 134 255q16 34 16 51q0 19 -36 25q-17 4 -17 12q0 9 22 9q21 0 57.5 -1.5t55.5 -1.5q6 0 55.5 1.5t59.5 1.5q20 0 20 -9q0 -11 -20 -11q-19 -1 -39 -8q-6 -2 -11 -5t-9.5 -6.5l-7.5 -6t-7.5 -7.5t-6.5 -7.5l-7 -9t-7 -9.5q-26 -32 -103.5 -165t-87.5 -164
q-16 -45 -16 -95v-71q0 -57 3 -99q1 -17 3 -25.5t11.5 -18.5t26.5 -13q11 -2 32 -4t23 -2q16 -1 16 -11q0 -9 -20 -9q-41 0 -108.5 1.5t-79.5 1.5t-71 -1.5t-84 -1.5q-20 0 -20 11q0 9 18 9q32 4 35 5q31 8 34 54q4 56 4 103z" />
    <glyph glyph-name="Z" unicode="Z" horiz-adv-x="739" 
d="M290 73h196q86 0 125 16.5t52 55.5q7 18 10 33q4 16 12 16q9 0 9 -21t-10 -73t-18 -78q-7 -26 -27 -26q-75 0 -258.5 2.5t-307.5 2.5q-18 0 -18 10q0 8 17 35l394 634h-170q-102 0 -140 -19q-39 -20 -57 -83q-6 -19 -14 -19t-8 18q0 4 21 164q3 19 11 19q3 0 15.5 -3
t25.5 -4q71 -3 195 -3h331q15 0 15 -10q0 -9 -12 -29z" />
    <glyph glyph-name="bracketleft" unicode="[" horiz-adv-x="421" 
d="M230 664v-628q0 -80 7 -94q17 -15 97 -23q26 -2 26 -11t-22 -9h-201q-11 0 -13.5 2.5t-2.5 13.5v863q0 8 2.5 10.5t11.5 2.5h205q21 0 21 -10q0 -9 -25 -11q-89 -10 -100 -20q-6 -10 -6 -86z" />
    <glyph glyph-name="backslash" unicode="\" horiz-adv-x="544" 
d="M124 754l355 -727q8 -15 1 -21q-5 -6 -23.5 -16t-22.5 -10q-5 0 -11 11l-359 735q-7 13 -1 17q8 7 25 16.5t22 9.5q6 0 14 -15z" />
    <glyph glyph-name="bracketright" unicode="]" horiz-adv-x="421" 
d="M191 25v628q0 80 -7 94q-17 15 -97 23q-26 2 -26 11t22 9h201q11 0 13.5 -2.5t2.5 -13.5v-863q0 -8 -2.5 -10.5t-11.5 -2.5h-205q-21 0 -21 10q0 9 25 11q89 10 100 20q6 10 6 86z" />
    <glyph glyph-name="asciicircum" unicode="^" horiz-adv-x="618" 
d="M258 750h103l197 -390h-114l-136 290l-134 -290h-113z" />
    <glyph glyph-name="underscore" unicode="_" horiz-adv-x="500" 
d="M0 -75h500v-50h-500v50z" />
    <glyph glyph-name="grave" unicode="`" horiz-adv-x="400" 
d="M258 721q1 -3 -2 -6t-9 -3q-20 0 -93.5 34.5t-128.5 68.5q-28 19 -27 28q-1 4 12 12q27 17 72 31q13 5 20 5q6 0 17 -19q12 -19 122 -129q18 -18 17 -22z" />
    <glyph glyph-name="a" unicode="a" 
d="M400 162h-207q-7 0 -10 -9l-21 -51q-15 -37 -15 -53q0 -27 56 -32h5q16 -1 16 -9q0 -11 -17 -11q-21 0 -60 1.5t-65 1.5q-1 0 -43 -1.5t-68 -1.5q-18 0 -18 10t16 10q34 4 53.5 19t38.5 57l240 512q27 59 42 59q7 0 14 -10t21 -37l237 -506q24 -50 40 -69t41 -23
q16 -2 20 -2q17 0 17 -10t-18 -10q-208 2 -258 3q-18 0 -18 9q0 6 12 10q13 5 13 8q1 3 -1 7l-55 123q-2 5 -8 5zM221 241h150q7 0 5 4l-79 179q-2 4 -5 -1l-74 -178q-1 -4 3 -4z" />
    <glyph glyph-name="b" unicode="b" horiz-adv-x="718" 
d="M140 278v123q0 122 -2 178q-1 26 -10.5 36.5t-30.5 13.5q-11 1 -31 3q-16 0 -16 10t18 10q29 0 76 -1.5t71 -1.5q36 0 89 1.5t67 1.5q70 0 119 -13.5t72 -35.5t32.5 -42.5t9.5 -42.5q0 -90 -112 -142q176 -52 176 -189q0 -78 -75.5 -135t-203.5 -57q-17 0 -91 2.5
t-83 2.5q-20 0 -64.5 -1.5t-70.5 -1.5q-20 0 -20 10t16 10q21 2 25 3q16 2 24 12t9 35q6 60 6 211zM306 578v-183q0 -9 10 -9q10 -3 54 -3q42 0 56 13q28 22 28 78t-27.5 90t-78.5 34q-24 0 -33 -4t-9 -16zM306 320v-71q0 -109 3 -143q1 -28 20 -40q22 -13 59 -13
q40 0 70 28.5t30 85.5q0 82 -45 123q-33 33 -85 37q-29 1 -47 -1q-5 0 -5 -6z" />
    <glyph glyph-name="c" unicode="c" horiz-adv-x="752" 
d="M495 -15q-209 0 -329 95q-114 94 -114 255q0 57 26 124.5t87 116.5q109 88 299 88q60 0 128 -10q66 -11 87 -11q10 -1 10 -12q0 -3 -4 -61q-3 -95 -4 -104q-2 -21 -12 -21q-9 0 -11 19q-3 54 -33 86q-51 54 -179 54q-78 0 -124 -39q-78 -62 -78 -214q0 -131 66.5 -213
t179.5 -82q58 0 91 8.5t58 34.5q20 22 29 63q5 21 14 21t9 -15q0 -21 -19 -135q-4 -22 -24 -29q-48 -19 -153 -19z" />
    <glyph glyph-name="d" unicode="d" horiz-adv-x="854" 
d="M140 249v152q0 145 -2 173q-1 16 -3 25t-12 18.5t-29 11.5l-29 3q-15 2 -15 11t19 9q5 0 63.5 -1.5t83.5 -1.5q9 0 54.5 1t92.5 1q127 0 211.5 -23t141.5 -78q86 -84 86 -220q0 -73 -28.5 -135t-71.5 -102q-29 -28 -58.5 -47t-96 -37.5t-152.5 -18.5q-25 0 -95.5 5
t-87.5 5q-21 0 -67 -1.5t-67 -1.5q-18 0 -18 10t16 10q6 0 26 3q27 2 32.5 38t5.5 145v46zM309 413v-110q0 -129 2 -163q2 -48 16 -63q26 -29 88 -29q49 0 84 11t67 45q55 55 55 196q0 113 -60 198q-68 96 -196 96q-36 0 -47 -8q-6 -5 -7.5 -30t-1.5 -143z" />
    <glyph glyph-name="e" unicode="e" horiz-adv-x="628" 
d="M140 249v152q0 146 -3 188q-3 35 -32 40l-27 3q-15 1 -15 11q0 9 19 9q29 0 73 -1.5t61 -1.5q8 0 130.5 0.5t129.5 0.5q31 0 51 4q9 3 14 3q8 0 6 -9q-6 -34 -7 -42q-1 -22 -5 -94q0 -14 -10 -14q-9 0 -10 12q-1 3 -2 13.5t-3 18.5q-4 16 -16.5 24.5t-42.5 11.5
q-66 4 -134 4q-7 0 -7 -9v-183q0 -8 7 -8q89 0 124 1q37 2 50.5 5.5t21.5 16.5q5 11 12 11t7 -11q0 -3 -3 -32.5t-4 -47.5q-2 -38 -2 -75q0 -15 -9 -15t-10 14q-1 3 -1.5 8.5t-0.5 8.5q-4 22 -16.5 33t-45.5 13q-42 3 -124 3q-6 0 -6 -7v-63v-105q1 -47 20.5 -61t93.5 -14
q55 0 83 10q18 7 27.5 23.5t15.5 47.5q3 15 12 15q8 0 8 -18q0 -70 -13 -125q-5 -16 -13 -19.5t-34 -3.5q-72 0 -161 2.5t-132 2.5q-20 0 -64.5 -1.5t-71.5 -1.5q-21 0 -21 11q0 9 18 9q25 3 26 3q20 3 26 25t9 75q0 15 0.5 59t0.5 70z" />
    <glyph glyph-name="f" unicode="f" horiz-adv-x="591" 
d="M140 249v152q0 137 -3 178q-3 45 -35 49q-8 2 -32 4q-17 4 -17 10q0 10 23 10q28 0 75.5 -1.5t64.5 -1.5q8 0 135.5 0.5t133.5 0.5q26 0 50 6q12 4 15 4q8 0 6 -8q0 -2 -1.5 -10t-3 -18t-2.5 -19q-4 -45 -5 -90q-1 -15 -11 -15q-8 0 -10 14q-2 19 -4 28q-4 17 -16.5 25
t-42.5 11q-64 4 -142 4q-8 0 -8 -9v-190q0 -10 7 -10q40 -1 125 1q39 2 51 5.5t21 18.5q6 9 12 9t6 -12q0 -1 -7 -76v-24v-32.5v-18.5q0 -17 -9 -17t-10 15q0 3 -1 8.5t-2 8.5q-2 23 -14 33t-45 11q-58 4 -128 4q-6 0 -6 -7v-63q0 -135 5 -172q2 -21 10.5 -31.5t32.5 -13.5
q18 -3 31 -3q20 -1 20 -10q0 -10 -20 -10q-16 0 -56 1.5t-104 1.5q-43 0 -94.5 -1.5t-54.5 -1.5q-18 0 -18 9t15 11q2 0 11 1t16 2q17 2 23 17t9 47q4 50 4 165z" />
    <glyph glyph-name="g" unicode="g" horiz-adv-x="831" 
d="M722 141v-55q0 -43 -3 -53.5t-17 -15.5q-96 -32 -219 -32q-200 0 -315.5 86.5t-115.5 253.5q0 102 46.5 172.5t117.5 109.5q100 57 261 57q62 0 141 -11q12 -1 30.5 -4t32.5 -5t26 -2q13 0 8 -14q-11 -88 -11 -163q0 -19 -11 -19q-8 0 -10 16q-5 27 -8 35q-8 51 -67 80
t-156 29q-105 0 -157 -64q-51 -63 -51 -179q0 -58 13.5 -112.5t41.5 -101.5t77 -75.5t113 -28.5q41 0 53 12q9 6 9 21v44q0 67 1 100q0 40 -10 56.5t-35 19.5q-14 2 -39 4q-14 2 -14 12q0 8 19 8q36 0 92.5 -1t63.5 -1q15 0 67 1t82 1q20 0 20 -9q0 -7 -14 -11q-10 0 -24 -2
q-18 -2 -25.5 -11t-8.5 -31q-4 -30 -4 -117z" />
    <glyph glyph-name="h" unicode="h" horiz-adv-x="893" 
d="M315 389h264q6 0 6 5v18q0 146 -2 174q-3 37 -39 43q-3 1 -31 3q-17 0 -17 10t18 10q23 0 58 -1t60.5 -1.5t26.5 -0.5t31.5 0.5t68.5 1.5t55 1q18 0 18 -10t-14 -10q-19 -2 -28 -4q-17 -2 -24 -12t-9 -32q-3 -28 -3 -183v-152q0 -137 5 -181q2 -23 10 -34t28 -14
q7 -1 20.5 -2t16.5 -1q17 -1 17 -11q0 -9 -20 -9q-36 0 -104.5 1.5t-69.5 1.5q-3 0 -53.5 -1.5t-77.5 -1.5q-19 0 -19 10t16 10q22 2 26 3q16 3 22.5 14.5t8.5 34.5q5 45 5 170v66q0 6 -6 6h-264q-6 0 -6 -6v-92q0 -101 5 -146q5 -42 41 -46q8 -2 21 -3l13 -1q17 -1 17 -11
q0 -9 -17 -9q-22 0 -64 0.5t-75 1.5t-34 1t-29.5 -1t-61.5 -1.5t-45 -0.5q-19 0 -19 9q0 10 15 11q21 2 26 3q29 4 33 52q5 46 5 177v149q0 139 -3 181q-2 24 -10.5 35t-32.5 15l-27 3q-15 1 -15 11q0 9 19 9q31 0 89 -1.5t64 -1.5q18 0 71.5 1.5t73.5 1.5q19 0 19 -11
q0 -8 -16 -9q-18 -2 -28 -4q-28 -5 -32 -49q-3 -28 -3 -167v-18q0 -5 6 -5z" />
    <glyph glyph-name="i" unicode="i" horiz-adv-x="449" 
d="M140 249v152q0 158 -3 185q-3 38 -30 42q-7 2 -28 4q-17 1 -17 10q0 10 20 10q15 0 48 -1t60 -1l26 -1q1 0 32.5 0.5t68 1.5t51.5 1q18 0 18 -10q0 -8 -18 -10q-11 -1 -20 -3q-18 -4 -25.5 -13t-10.5 -31q-3 -28 -3 -184v-152q0 -139 5 -185q3 -36 35 -43q2 -1 37 -4
q19 0 19 -11q0 -9 -19 -9q-27 0 -68.5 0.5t-71.5 1.5l-30 1l-28 -1q-28 -1 -61 -1.5t-45 -0.5q-21 0 -21 10t15 10q2 0 12 1t17 2q26 5 29 47q6 43 6 182z" />
    <glyph glyph-name="j" unicode="j" horiz-adv-x="429" 
d="M314 401v-168q0 -171 -22 -230q-40 -111 -190 -195q-22 -13 -46 -23q-12 -5 -20 -5q-9 0 -9 8t18 18q32 19 51 40q32 35 40 95t8 245v215q0 144 -3 186q-1 22 -10.5 30.5t-30.5 10.5q-9 1 -18 2.5t-12 1.5q-18 2 -18 10q0 10 20 10q10 0 29 -0.5l38.5 -1t37.5 -0.5h31
l12 -1q1 0 34 0.5t71 1.5t52 1q19 0 19 -9t-17 -11q-2 0 -10.5 -1t-15.5 -2q-20 -3 -27.5 -15.5t-8.5 -34.5q-3 -42 -3 -178z" />
    <glyph glyph-name="k" unicode="k" horiz-adv-x="772" 
d="M307 401v-51q95 88 193 196q45 48 45 66q0 9 -4.5 13t-20.5 7q-17 2 -17 10q0 9 16 9q19 0 43 -1t53 -1q33 0 83 1l50 1q20 0 20 -9q0 -8 -17 -10q-24 -4 -29 -5q-23 -4 -44.5 -15.5t-34 -21.5t-41.5 -36q-59 -55 -159 -159q23 -37 106.5 -137.5t134.5 -154.5
q54 -57 83 -72q16 -9 45 -14q18 -1 18 -11q0 -9 -18 -9h-90q-90 0 -133 11.5t-78 45.5q-71 70 -204 267v-72q0 -146 3 -182q4 -42 41 -47q7 -1 21.5 -2t16.5 -1q15 -1 15 -10q0 -10 -17 -10q-27 0 -68.5 0.5t-72.5 1.5l-30 1l-29 -1q-29 -1 -63 -1.5t-47 -0.5q-18 0 -18 9
t18 11l20 3q21 3 28 15t9 35q6 54 6 179v152q0 159 -3 187q-3 34 -34 40q-15 2 -33 4t-18 11t23 9q15 0 49.5 -1t63.5 -1l28 -1q1 0 32.5 0.5t67.5 1.5t50 1q19 0 19 -10q0 -9 -17 -10q-3 -1 -11.5 -2t-10.5 -1q-16 -2 -24 -10t-10 -17t-3 -25q-2 -28 -2 -176z" />
    <glyph glyph-name="l" unicode="l" horiz-adv-x="620" 
d="M309 390v-142v-33.5v-32v-27.5t0.5 -25t2 -19t3.5 -16.5t5 -10.5q10 -13 29 -17t75 -4q71 0 99 10q41 16 55 79q4 18 13 18q8 0 8 -18t-8 -67t-14 -67q-6 -16 -13.5 -19.5t-33.5 -3.5q-72 0 -171 2.5t-142 2.5q-20 0 -65.5 -1.5t-72.5 -1.5q-21 0 -21 11q0 9 17 9
q5 1 11 1.5t10 0.5q27 4 34 21.5t9 78.5q0 15 0.5 59.5t0.5 70.5v152q0 140 -3 182q-3 36 -31 44q-14 4 -33 5q-18 2 -18 10q0 10 25 10q29 0 74 -1.5t62 -1.5q1 0 33 0.5t69 1.5t51 1q20 0 20 -9q0 -11 -16 -11q-17 -2 -27 -4q-18 -3 -25 -14.5t-9 -36.5q-3 -42 -3 -187z
" />
    <glyph glyph-name="m" unicode="m" horiz-adv-x="954" 
d="M783 628l71 -519q5 -43 15.5 -61.5t32.5 -24.5q13 -4 41 -6q16 -2 16 -11t-19 -9q-160 0 -259 5q-18 0 -18 11q0 5 9 9q13 5 15.5 12.5t-0.5 39.5l-27 292l-182 -319q-28 -50 -39 -50q-7 0 -13 7t-29 41l-124 203q-5 8 -19.5 33.5l-27 46.5t-18.5 30l-22 -219
q-3 -43 -3 -73q0 -38 32 -45q14 -2 32 -4q17 0 17 -9q0 -11 -20 -11q-21 0 -63 1.5t-55 1.5q-15 0 -52.5 -1.5t-55.5 -1.5t-18 11q0 8 16 9q5 1 13 1.5t13 0.5q20 4 30.5 21t17.5 65l79 522q6 37 20 37q11 0 36 -37l260 -396l246 401q23 32 33 32q13 0 19 -36z" />
    <glyph glyph-name="n" unicode="n" horiz-adv-x="848" 
d="M115 124q3 91 5 265t4 231q2 44 17 44q9 0 34 -19q85 -67 292 -250l172 -150l-5 306q-2 39 -10.5 56t-36.5 21q-13 2 -36 4q-16 1 -16 10q0 10 17 10q16 0 65 -1.5t70 -1.5q9 0 47 1.5t58 1.5q19 0 19 -9q0 -10 -15 -11q-18 -2 -20 -2q-23 -3 -32 -17.5t-11 -54.5
q-10 -209 -12 -514q0 -36 -4.5 -47.5t-14.5 -11.5q-19 0 -117 80l-176 152l-202 179l9 -281q2 -50 7 -68.5t24 -23.5t45 -6q19 -3 19 -10q0 -10 -22 -10q-11 0 -46 1l-69 2q-12 0 -62 -1.5t-66 -1.5q-20 0 -20 10q0 9 16 10q5 1 12.5 1.5t12.5 0.5q27 4 36.5 24t11.5 81z
" />
    <glyph glyph-name="o" unicode="o" horiz-adv-x="862" 
d="M433 -15q-95 0 -171 30.5t-120 80.5t-67 107.5t-23 117.5q0 69 24 130t70.5 109t122 76t170.5 28q165 0 268 -95t103 -228q0 -156 -102 -256t-275 -100zM457 45q161 0 161 256q0 54 -10.5 104t-33 97t-65.5 75.5t-101 28.5q-164 0 -164 -242q0 -84 21.5 -154t71 -117.5
t120.5 -47.5z" />
    <glyph glyph-name="p" unicode="p" horiz-adv-x="677" 
d="M140 249v152q0 157 -3 185q-3 36 -32 42q-13 2 -31 4q-16 1 -16 9q0 11 20 11t82 -1.5t66 -1.5q22 0 68.5 1.5t66.5 1.5q163 0 229 -61q51 -48 51 -117q0 -98 -78.5 -152.5t-180.5 -54.5q-20 0 -29 3q-10 3 -10 9q0 10 19 10q107 0 107 131q0 98 -43 142q-30 36 -83 36
q-6 0 -12.5 -0.5t-7.5 -0.5q-14 -3 -14 -23v-325q0 -121 5 -181q3 -41 37 -47q4 -1 37 -4q18 -1 18 -11q0 -9 -19 -9q-27 0 -68.5 0.5t-71.5 1.5t-31 1l-28 -1q-29 -1 -62.5 -1.5t-45.5 -0.5q-20 0 -20 10q0 8 18 10q4 1 13.5 1.5t13.5 0.5q25 6 29 50q6 43 6 180z" />
    <glyph glyph-name="q" unicode="q" horiz-adv-x="862" 
d="M535 -2q-63 -13 -109 -13q-95 0 -170 31.5t-117.5 82.5t-64.5 109t-22 118q0 65 23.5 124.5t69.5 107.5t121.5 77t171.5 29q170 0 271.5 -96.5t101.5 -226.5q0 -178 -142 -282l159 -86q220 -107 373 -107q93 0 161 30q14 7 21 7t7 -8q0 -10 -14 -17q-140 -95 -331 -95
q-89 0 -173 28.5t-190 94.5zM458 45q160 0 160 256q0 54 -10.5 104.5t-33.5 97t-66 75t-101 28.5q-163 0 -163 -243q0 -84 20.5 -153.5t70.5 -117t123 -47.5z" />
    <glyph glyph-name="r" unicode="r" horiz-adv-x="746" 
d="M140 249v152q0 134 -3 176q-3 47 -37 51q-10 2 -20 3l-11 1q-15 0 -15 10t18 10q21 0 79 -1.5t60 -1.5q4 0 66 1.5t88 1.5q136 0 188 -29q85 -43 85 -135q0 -93 -119 -170q104 -159 166 -228q33 -38 53 -52.5t42 -17.5q5 -1 14 -2t10 -1q14 -2 14 -11t-18 -9h-78
q-131 0 -180 31q-37 24 -86 104l-42.5 72t-31.5 53q-2 5 -10 5l-60 1q-7 0 -7 -7v-53q0 -81 4 -133q2 -19 8.5 -30.5t25.5 -16.5q9 -3 41 -6q16 -1 16 -11q0 -9 -17 -9q-27 0 -68.5 0.5t-72 1.5t-31.5 1q-3 0 -59.5 -1.5t-73.5 -1.5q-18 0 -18 11q0 9 16 9q2 0 13.5 1
t17.5 2q25 6 28 50q5 45 5 179zM305 578v-231q0 -7 8 -13q23 -12 74 -12q35 0 55 14q31 23 31 103q0 43 -13.5 75t-34.5 47.5t-41.5 22.5t-39.5 7q-28 0 -33 -3q-6 -3 -6 -10z" />
    <glyph glyph-name="s" unicode="s" horiz-adv-x="527" 
d="M218 -15q-93 0 -151 25q-20 8 -20 35q0 89 5 134q2 19 12 19q8 0 9 -13q3 -22 3 -23q9 -54 54.5 -86t103.5 -32q56 0 81 21.5t25 51.5q0 29 -17.5 53.5t-70.5 60.5l-55 37q-77 54 -106.5 101.5t-29.5 110.5q1 78 64.5 131t168.5 53q58 0 109 -10q38 -8 45 -10
q11 -2 11 -13q-3 -96 -3 -127q0 -21 -10 -21t-12 17q-3 26 -14 48q-14 26 -48 44t-77 18q-52 0 -75.5 -23.5t-23.5 -55.5q0 -29 15.5 -50.5t52.5 -44.5l51 -32q96 -60 130.5 -105.5t34.5 -111.5q0 -112 -100 -167q-62 -35 -162 -35z" />
    <glyph glyph-name="t" unicode="t" horiz-adv-x="681" 
d="M422 582v-333q0 -131 4 -180q4 -43 36 -48q14 -3 36 -4q20 -3 20 -12q0 -8 -21 -8q-37 0 -103 1l-66 2q-5 0 -63 -1.5t-73 -1.5q-21 0 -21 9t18 11q1 0 11.5 1t17.5 2q24 5 29 46q4 37 4 183v333q-107 0 -136 -2q-36 -2 -52.5 -13t-24.5 -37q-5 -15 -7 -19
q-4 -13 -11 -13q-10 0 -8 18q5 40 20 127q3 19 12 19q2 0 10 -2.5t16 -3.5q30 -7 102 -7h400q30 0 54 4q28 5 29 5q6 0 7.5 -4t1.5 -20v-6q0 -4 -1.5 -29.5t-3.5 -54.5t-2 -37q-1 -18 -11 -18q-8 0 -10 15q0 6 -0.5 12.5t-0.5 8.5q-3 23 -15.5 35.5t-45.5 15.5q-96 6 -152 6
z" />
    <glyph glyph-name="u" unicode="u" horiz-adv-x="793" 
d="M284 401v-131q0 -89 14.5 -132.5t54.5 -68.5q37 -21 82 -21q57 0 92 28q25 19 37 60.5t13 70.5t1 92v102q0 146 -2 174q-2 26 -9.5 37.5t-28.5 15.5q-9 2 -33 4q-16 1 -16 11q0 9 20 9q31 0 75.5 -1.5t49.5 -1.5q4 0 49 1.5t72 1.5q19 0 19 -10q0 -8 -15 -10
q-22 -2 -28 -4q-18 -3 -24.5 -14t-8.5 -39q-3 -42 -3 -174v-83q0 -47 -2.5 -77.5t-10.5 -70t-28.5 -71.5t-52.5 -57q-73 -57 -186 -57q-146 0 -217 58q-84 65 -84 226v132q0 157 -2 185q-3 34 -27 40q-3 1 -39 6q-16 2 -16 11t22 9q16 0 49.5 -1t60.5 -1l28 -1q1 0 33 0.5
t69.5 1.5t51.5 1q22 0 22 -9t-15 -11l-32 -4q-30 -6 -33 -51q-2 -28 -2 -176z" />
    <glyph glyph-name="v" unicode="v" horiz-adv-x="683" 
d="M293 37l-238 526q-19 41 -30 51.5t-34 14.5l-4 1q-4 0 -9.5 1t-7.5 1q-12 1 -12 10q0 10 17 10q26 0 74 -1.5t64 -1.5q12 0 64.5 1.5t95.5 1.5q20 0 20 -10q0 -8 -13 -10q-5 -1 -11.5 -2t-10.5 -1q-30 -2 -30 -21q0 -16 20 -64q23 -59 73.5 -176.5l61.5 -143.5
q46 97 148 341q13 33 13 43q0 9 -5 13.5t-18 5.5q-14 3 -36 5q-17 3 -17 10q0 10 19 10q38 0 79 -2l42 -1q5 0 46.5 1.5t57.5 1.5q20 0 20 -10q0 -9 -17 -10q-27 -2 -38 -7q-15 -7 -27 -22.5t-31 -53.5l-122 -259l-120 -244q-19 -37 -29 -49t-19 -12t-16 10.5t-20 41.5z" />
    <glyph glyph-name="w" unicode="w" horiz-adv-x="1012" 
d="M263 44l-202 521q-12 31 -22 44.5t-26 17.5q-6 2 -14.5 3t-11.5 2q-14 3 -14 11q0 9 19 9q33 0 83 -1.5t52 -1.5q10 0 63 1.5t80 1.5q19 0 19 -10t-15 -10q-14 -2 -22 -3q-19 -3 -19 -19q0 -11 23 -77q50 -155 104 -291l155 378q12 30 25 30q2 0 4.5 -1t4 -2t3.5 -3.5
l3.5 -4.5t3.5 -6t3.5 -6.5t4 -8t4.5 -9.5l178 -370q40 110 93 286q19 67 19 76q0 14 -10.5 21t-44.5 10q-17 0 -17 9q0 11 18 11q26 0 53 -1t44 -1.5t19 -0.5t22 0.5t45.5 1t39.5 0.5q19 0 19 -9t-15 -10q-19 -2 -28 -4q-20 -4 -34 -23t-32 -68l-191 -495q-20 -49 -31 -55
q-3 -2 -7 -2q-9 0 -16 9.5t-19 34.5l-178 355q-41 -98 -156 -348q-25 -51 -42 -51q-9 0 -16 11.5t-21 47.5z" />
    <glyph glyph-name="x" unicode="x" horiz-adv-x="677" 
d="M87 79l177 232l-154 244q-25 40 -40.5 54.5t-47.5 19.5q-13 1 -24 3q-14 2 -14 11t19 9q4 0 18 -1t46 -1.5t80 -0.5q4 0 62.5 1.5t87.5 1.5q20 0 20 -10q0 -8 -15 -10q-16 -2 -22 -4q-13 -3 -13 -14q0 -4 19 -42l52.5 -85t38.5 -62q23 32 102 153q14 22 14 34t-19 16
q-8 2 -32 4q-14 0 -14 10t17 10q20 0 61.5 -1.5t51.5 -1.5t49 1.5t62 1.5q16 0 16 -9q0 -10 -16 -11q-8 -1 -21 -3q-22 -5 -38 -17.5t-47 -52.5l-148 -191q153 -246 205 -314q23 -29 53 -34q4 -1 34 -3q16 -1 16 -11q0 -9 -18 -9q-207 0 -285 5q-16 1 -16 10q0 7 11 11
q19 4 11 19q-15 27 -64 107.5t-58 96.5l-117 -177q-13 -19 -13 -31q0 -16 23 -19q3 -1 13 -1.5t14 -0.5q14 0 14 -10t-18 -10q-7 0 -60.5 1.5t-73.5 1.5t-61.5 -1.5t-42.5 -1.5q-18 0 -18 10t15 10q18 0 27 3q42 8 81 59z" />
    <glyph glyph-name="y" unicode="y" horiz-adv-x="644" 
d="M238 155v67q0 22 -4 39.5t-7.5 24.5l-14.5 28q-90 159 -151 245q-27 41 -40 52t-36 16q-5 2 -19 4q-13 3 -13 11q0 10 18 10q22 0 74.5 -1.5t69.5 -1.5q1 0 51.5 1.5t85.5 1.5q17 0 17 -9q0 -8 -16 -12q-33 -4 -33 -17q0 -8 9 -24l137 -238q86 152 116 216q15 32 15 40
q0 9 -7 14.5t-28 8.5q-14 2 -14 11q0 10 20 10q19 0 53.5 -1.5t52.5 -1.5q5 0 50.5 1.5t54.5 1.5q17 0 17 -8q0 -11 -17 -12t-34 -6q-18 -7 -27.5 -15.5t-24.5 -27.5q-23 -26 -92.5 -143t-78.5 -144q-14 -40 -14 -80v-61q0 -44 2 -81q1 -15 2.5 -22t10 -17t24.5 -13
q11 -3 51 -5q15 0 15 -10t-16 -10q-37 0 -102.5 1.5t-76.5 1.5t-66.5 -1.5t-78.5 -1.5q-18 0 -18 11q0 9 17 9q21 1 31 4q30 8 32 47q3 37 3 87z" />
    <glyph glyph-name="z" unicode="z" horiz-adv-x="666" 
d="M273 66h163q79 0 114 15t48 52q3 8 8 26q4 13 13 13q8 0 8 -15q0 -18 -9.5 -66.5t-17.5 -71.5q-2 -7 -3.5 -11t-7 -7.5t-13.5 -3.5q-67 0 -232 2t-281 2q-16 0 -16 9q0 8 15 31l345 541h-143q-95 0 -126 -16q-32 -17 -49 -74q-5 -16 -15 -16q-9 0 -9 15q0 7 4 36.5
l9 65.5t7 49q3 16 11 16q2 0 13.5 -2.5t23.5 -3.5q85 -3 176 -3h302q13 0 13 -8q0 -10 -11 -28z" />
    <glyph glyph-name="braceleft" unicode="{" horiz-adv-x="447" 
d="M132 365q26 -5 49 -14.5t47 -27.5t38.5 -49t14.5 -71q0 -10 -1 -52t-1 -84q0 -79 21 -113t73 -42q14 -2 14 -9q0 -11 -21 -11q-105 0 -158 49q-57 55 -57 162q0 32 4.5 89t4.5 82q0 40 -18.5 56.5t-56.5 20.5q-21 4 -21 12q0 10 23 13q17 3 26.5 5.5t22 11t18.5 25.5
t6 43q0 22 -4.5 67.5t-4.5 74.5q0 92 68.5 143.5t150.5 51.5q16 0 16 -9q0 -7 -13 -10q-47 -11 -70.5 -39t-23.5 -96q0 -29 1 -61t1 -41q0 -75 -42 -120t-107 -57z" />
    <glyph glyph-name="bar" unicode="|" horiz-adv-x="487" 
d="M279 -250h-68v1000h68v-1000z" />
    <glyph glyph-name="braceright" unicode="}" horiz-adv-x="447" 
d="M315 362q-26 5 -49 14.5t-47 27.5t-38.5 49t-14.5 71q0 10 1 38t1 70q0 75 -21.5 104t-73.5 43q-13 4 -13 9q0 10 22 10q40 0 85 -12t71 -37q18 -16 28 -29.5t20 -46t10 -77.5q0 -32 -4.5 -74.5t-4.5 -67.5q0 -40 18.5 -58t52.5 -22q24 -4 24 -10q0 -7 -25 -10
q-12 -2 -21.5 -5.5t-22 -13t-19.5 -28.5t-7 -47q0 -16 4.5 -76.5t4.5 -96.5q0 -92 -67 -143.5t-149 -51.5q-19 0 -19 10q0 7 15 10q92 12 92 134q0 29 -1 76.5t-1 60.5q0 61 45.5 113.5t103.5 65.5z" />
    <glyph glyph-name="asciitilde" unicode="~" horiz-adv-x="689" 
d="M177 256l-88 -1q-5 88 30.5 135t103.5 47q32 0 57.5 -8.5t77.5 -35.5q12 -5 32.5 -15t28.5 -13.5t19.5 -7t21.5 -3.5q25 -1 38.5 17t14.5 65h87q3 -97 -32.5 -139.5t-95.5 -42.5q-35 0 -62.5 8.5t-76.5 34.5l-44 22.5t-29 11.5t-32 6q-48 0 -51 -81z" />
    <glyph glyph-name="uni00A0" unicode="&#xa0;" horiz-adv-x="280" 
 />
    <glyph glyph-name="exclamdown" unicode="&#xa1;" horiz-adv-x="386" 
d="M174 531q13 0 19 -32l13 -82t20 -116q20 -104 34 -162q4 -17 22 -66q3 -8 -2 -13q-18 -24 -85.5 -50.5t-110.5 -26.5q-13 0 -13 12q0 4 21 130q12 65 32 195t28 170q8 41 22 41zM174 767q42 0 63.5 -26.5t21.5 -59.5q0 -34 -21.5 -59.5t-63.5 -25.5q-37 0 -61 23t-24 59
q0 38 23.5 63.5t61.5 25.5z" />
    <glyph glyph-name="cent" unicode="&#xa2;" horiz-adv-x="667" 
d="M451 576l-46 -399q17 -4 36 -4q42 0 77 24.5t45 69.5q4 18 13 18q7 0 7 -15q0 -6 -6 -55t-9 -62q-4 -16 -16 -21q-45 -21 -132 -21q-15 0 -23 1l-14 -128q-1 -10 -8 -11q-21 -7 -44 -7q-9 0 -8 8l17 142q-109 16 -183 81.5t-74 183.5q0 111 87 181q40 34 104 54t126 18
l11 100q1 7 9 9q20 4 45 4q6 0 5 -6l-13 -108q70 -6 120 -25q7 -4 7 -14q0 -41 -6 -125q-1 -17 -9 -17q-10 0 -11 17q-5 47 -20 65q-30 36 -87 42zM348 192l45 385q-71 -6 -104.5 -56.5t-33.5 -125.5q0 -158 93 -203z" />
    <glyph glyph-name="sterling" unicode="&#xa3;" horiz-adv-x="667" 
d="M184 100l261 3q70 1 100 21.5t39 68.5q2 14 11 14t9 -18q0 -12 -8 -80.5t-13 -93.5q-3 -13 -12 -16.5t-49 -3.5q-32 0 -125 3t-135 2h-227q-29 0 -29 10q0 13 22 18q52 16 76 67.5t38 161.5l12 101h-12q-49 0 -82 -3q-6 -1 -8 2.5t0 9.5q4 13 18 43q5 9 14 9q1 0 26 -0.5
t45 -0.5h6l5 47q24 168 120 244q72 58 187 58q68 0 101 -11q22 -4 27 -5q7 -1 7 -14q0 -107 -5 -139q-2 -15 -10 -15q-11 0 -11 18q0 36 -24 68q-32 46 -96 46q-56 0 -84.5 -39.5t-39.5 -131.5q-2 -19 -6 -60.5t-7 -65.5h67q42 0 87 3q6 1 8 -2t-1 -13q-10 -27 -19 -43
q-6 -10 -21 -10q-2 0 -21 1t-46 2t-49 1h-12q-1 -6 -2.5 -18.5t-2.5 -18.5q-19 -134 -131 -218z" />
    <glyph glyph-name="currency" unicode="&#xa4;" horiz-adv-x="633" 
d="M582 593l-88 -79q38 -54 38 -132q1 -86 -40 -138l86 -83l-52 -52l-75 88q-47 -46 -135 -46q-81 2 -128 41l-75 -83l-50 52l82 78q-40 54 -40 136t41 139l-85 79l52 55l76 -86q51 43 132 43q82 0 130 -42l79 85zM447 381q0 64 -33.5 108t-95.5 44q-63 0 -96.5 -43.5
t-33.5 -112.5q0 -75 38 -114t92 -39q55 0 92 39t37 118z" />
    <glyph glyph-name="yen" unicode="&#xa5;" horiz-adv-x="667" 
d="M200 403h36q-95 175 -141 245q-32 49 -45.5 63t-35.5 20q-4 1 -18 3q-16 3 -16 10q0 9 20 9q23 0 74.5 -1.5t69.5 -1.5q2 0 53 1.5t89 1.5q19 0 19 -8q0 -10 -20 -13q-34 -5 -34 -21q0 -3 2 -7l5 -10t5 -12q10 -24 120 -226q49 89 97 200q13 30 13 52q0 20 -39 25
q-18 2 -18 12q0 8 21 8t58 -1.5t55 -1.5q6 0 47 1.5t51 1.5q20 0 20 -8q0 -9 -21 -11q-31 -4 -48.5 -17t-36.5 -43q-73 -125 -150 -271h45q58 0 88 2q12 0 6 -14q-7 -24 -12 -32q-5 -9 -19 -9h-21t-46.5 0.5t-49.5 0.5v-71h54q58 0 88 2q12 0 6 -15q-6 -19 -15 -32
q-4 -8 -18 -8q-2 0 -20.5 0.5t-45.5 0.5h-49q2 -102 6 -155q3 -43 38 -51q11 -3 42 -5q21 0 21 -10t-21 -10q-30 0 -73 0.5t-74.5 1.5t-34.5 1q-1 0 -30 -1t-63.5 -1.5t-49.5 -0.5q-25 0 -25 10t20 10q20 2 31 4q26 4 31 54q6 58 5 153h-56q-63 0 -82 -2q-6 -1 -8 3t0 9
q4 12 15 34q5 9 14 9q1 0 27 -0.5t45 -0.5h45v71h-56q-60 0 -82 -2q-6 -1 -8 3t0 9q13 31 15 34q5 9 13 9q2 0 27 -0.5t45 -0.5z" />
    <glyph glyph-name="brokenbar" unicode="&#xa6;" horiz-adv-x="487" 
d="M279 325h-68v350h68v-350zM279 -175h-68v350h68v-350z" />
    <glyph glyph-name="section" unicode="&#xa7;" horiz-adv-x="594" 
d="M157 475q-33 33 -45 61t-12 65q0 69 57.5 117.5t156.5 48.5q50 0 98 -8q33 -6 44 -5q4 1 6.5 -1.5t2.5 -7.5q0 -3 -3.5 -46t-3.5 -86q0 -19 -10 -19q-7 0 -9 14q-6 48 -25 68q-40 42 -109 42q-42 0 -64 -21t-22 -54q0 -28 18.5 -48t55.5 -42q3 -2 15.5 -9t18.5 -12
l29.5 -18t30.5 -19l26.5 -18t27 -21t21.5 -21t20.5 -25l13.5 -26.5t10.5 -32t2.5 -35.5q0 -112 -97 -174q49 -53 49 -117q0 -80 -63 -133t-183 -53q-87 0 -142 26q-16 7 -16 29q0 95 6 128q2 20 12 20q8 0 8 -16q0 -2 3 -35q7 -47 50 -73.5t98 -26.5q49 0 75.5 23.5
t26.5 56.5q0 34 -19.5 56.5t-77.5 61.5l-17 12q-90 58 -129.5 103.5t-39.5 112.5q0 53 31 95.5t73 62.5zM187 453q-39 -30 -39 -75q0 -29 23.5 -53t88.5 -69l34 -23q64 -37 88 -59q30 20 30 67q0 31 -22 60t-97 80l-33 21q-32 20 -73 51z" />
    <glyph glyph-name="dieresis" unicode="&#xa8;" horiz-adv-x="400" 
d="M311 738q-26 0 -40.5 17.5t-14.5 38.5q0 19 15.5 36.5t39.5 17.5q23 0 38.5 -14.5t15.5 -37.5q0 -25 -15 -41.5t-39 -16.5zM87 738q-26 0 -39 17t-13 39q0 21 14 37t39 16q24 0 39.5 -14.5t15.5 -37.5q0 -25 -15.5 -41t-40.5 -16z" />
    <glyph glyph-name="copyright" unicode="&#xa9;" horiz-adv-x="925" 
d="M449 -17q-177 0 -286 108.5t-109 282.5q0 164 114 278.5t281 114.5q176 0 284.5 -110t108.5 -283q0 -164 -114 -277.5t-279 -113.5zM98 375q0 -153 102 -256.5t249 -103.5q159 0 253.5 100.5t94.5 259.5q0 151 -99.5 256t-248.5 105q-154 0 -252.5 -101t-98.5 -260z
M504 162q-132 0 -203 59q-71 60 -71 164q0 35 16 77.5t53 74.5q69 57 186 57q28 0 79 -7q44 -7 53 -7q6 0 6 -8q0 -1 -2 -37q0 -9 -0.5 -35t-1.5 -33q-2 -13 -8 -13q-9 0 -9 12q0 36 -21 58q-33 35 -102 35q-45 0 -75 -27q-48 -41 -48 -137q0 -83 39 -137t105 -54
q55 0 84 29q12 13 20 43q4 13 11 13q5 0 5 -11q0 -24 -13 -87q-2 -12 -14 -16q-32 -13 -89 -13z" />
    <glyph glyph-name="ordfeminine" unicode="&#xaa;" horiz-adv-x="504" 
d="M399 544l-2 -126q0 -51 32 -51q16 0 21 2q11 3 11 -5q0 -4 -6 -12q-29 -33 -87 -33q-67 0 -79 50q-44 -50 -107 -50q-50 0 -78.5 30t-28.5 73q0 103 213 131v11q0 76 -79 76q-81 0 -94 -61q-3 -11 -10 -11t-7 13q0 7 1.5 35t1.5 39q0 12 2 15t9 6q20 9 46 18q45 14 90 14
q151 0 151 -164zM286 432l2 74q-104 -15 -104 -69q0 -23 15 -35t35 -12q27 0 43 17q9 9 9 25z" />
    <glyph glyph-name="guillemotleft" unicode="&#xab;" horiz-adv-x="635" 
d="M312 148l-49 -56q-10 -10 -13 -10q-5 0 -44 48q-32 38 -147 152q-19 19 -19 25t20 23q4 3 50.5 43l96 81.5l80.5 65.5q18 13 23 13q6 0 6 -5q0 -7 -13 -20q-7 -9 -49 -56.5l-72 -83t-34 -45.5q9 -14 36.5 -41l64 -61l52.5 -50q15 -14 15 -16q0 -3 -4 -7zM567 148l-49 -56
q-12 -10 -14 -10q-4 0 -44 48q-39 45 -146 152q-19 19 -19 25q0 5 19 23q4 3 50.5 43l96 81.5l80.5 65.5q18 13 24 13q5 0 5 -5q0 -8 -12 -20q-149 -171 -156 -185q9 -14 37 -41l64.5 -61l52.5 -50q15 -15 15 -16q0 -3 -4 -7z" />
    <glyph glyph-name="logicalnot" unicode="&#xac;" horiz-adv-x="693" 
d="M600 125h-96v190h-412v98h508v-288z" />
    <glyph glyph-name="uni00AD" unicode="&#xad;" horiz-adv-x="405" 
d="M76 366h252q42 0 42 -11q0 -13 -57 -28q-157 -40 -215 -63q-11 -5 -23.5 -11.5t-19.5 -9.5t-12 -3q-10 0 -6 20l15 87q2 13 6 16t18 3z" />
    <glyph glyph-name="registered" unicode="&#xae;" horiz-adv-x="206" 
d="M103 585q-39 0 -65.5 26.5t-26.5 64.5q0 40 26 65.5t66 25.5t66 -25.5t26 -65.5q0 -38 -26.5 -64.5t-65.5 -26.5zM104 601q32 0 53 21.5t21 54.5t-21 54t-54 21t-54 -21t-21 -54t21.5 -54.5t54.5 -21.5zM69 670v20q0 20 -1 25q-1 6 -10 7q-5 1 -5 3t5 2q4 0 12 -0.5
t9 -0.5q4 0 12 0.5t12 0.5q35 0 35 -26q0 -16 -18 -25l12 -17q13 -18 24 -21q4 -1 4 -3q0 -3 -11 -3q-21 0 -35 18l-13 19h-11v-3q0 -9 1 -19q0 -8 10 -9q6 0 6 -2q0 -3 -6 -3q-3 0 -11 0.5t-10 0.5q-1 0 -9.5 -0.5t-12.5 -0.5q-5 0 -5 2q0 3 5 3q11 0 11 10v22zM90 717v-38
q3 -1 9 -1q7 0 11 3q6 5 6 14q0 23 -20 23q-4 0 -6 -1z" />
    <glyph glyph-name="macron" unicode="&#xaf;" horiz-adv-x="400" 
d="M339 753h-299q-5 0 -5 8q4 36 12 49q2 7 9 7h301q8 0 6 -8q-4 -33 -11 -48q-4 -8 -13 -8z" />
    <glyph glyph-name="degree" unicode="&#xb0;" horiz-adv-x="330" 
d="M285 595q-1 -51 -37 -85t-85 -34q-52 0 -85 34t-33 81q0 50 34.5 84.5t86.5 34.5q54 0 86.5 -33.5t32.5 -81.5zM233 595q0 29 -18 51.5t-53 22.5q-31 0 -49.5 -23.5t-18.5 -52.5q0 -30 20 -51t49 -21q30 0 50 21.5t20 52.5z" />
    <glyph glyph-name="plusminus" unicode="&#xb1;" horiz-adv-x="693" 
d="M600 21h-508v97h508v-97zM600 369h-203v-204h-99v204h-206v98h205v198h99v-198h204v-98z" />
    <glyph glyph-name="twosuperior" unicode="&#xb2;" horiz-adv-x="407" 
d="M296 482h-273q-10 0 -10 8q0 6 19 23l20 15l29.5 22.5t30 25.5t33 32t28.5 35t25.5 41.5t15.5 44.5t7 50q0 63 -21.5 84t-57.5 21q-35 0 -59 -25q-19 -21 -21 -55q-1 -16 -9 -16t-9 14q-3 18 -3 90q0 11 8 14q54 23 130 23q88 0 135 -35.5t47 -93.5q0 -29 -10 -55.5
t-22.5 -45t-36.5 -39.5t-39 -31.5l-43.5 -29t-38.5 -25.5q-6 -4 1 -4h35q51 0 101 5q30 4 42.5 15t19.5 33q3 13 11 13q7 0 7 -14q0 -8 -7.5 -59t-12.5 -64q-2 -11 -16 -14t-56 -3z" />
    <glyph glyph-name="threesuperior" unicode="&#xb3;" horiz-adv-x="423" 
d="M160 472q-76 0 -106 16q-16 6 -16 20q-4 51 2 92q2 12 10 12q7 0 7 -12q2 -41 28 -64.5t71 -23.5q44 0 69.5 24.5t25.5 76.5q0 46 -23 68t-65 29q-24 4 -24 12t14 10q44 7 62.5 24t18.5 58q0 31 -20 51.5t-56 20.5q-77 0 -85 -84q0 -14 -9 -14q-8 0 -8 13q0 10 -1.5 47.5
t-1.5 43.5q0 10 11 14q56 23 137 23q85 0 125.5 -29t40.5 -66q0 -46 -38.5 -70.5t-84.5 -31.5q-2 -2 0 -3q146 -23 146 -113q0 -60 -62 -102t-168 -42z" />
    <glyph glyph-name="acute" unicode="&#xb4;" horiz-adv-x="400" 
d="M331 881q34 -37 47 -71q5 -17 -5 -17q-17 2 -58 -12q-81 -25 -148 -58q-15 -7 -23 -9q-8 2 -8 7t9 18q28 34 71 77.5t62 57.5q21 18 32 18q8 0 21 -11z" />
    <glyph glyph-name="uni00B5" unicode="&#xb5;" horiz-adv-x="730" 
d="M131 144v15q0 203 -8 318q0 11 9 11q110 0 158 6q4 1 5.5 -1.5t0.5 -7.5q-7 -112 -7 -253v-52q0 -94 65 -94q35 0 57 27.5t22 70.5v31q0 147 -8 262q-1 11 9 11q112 0 158 6q5 1 7 -1.5t1 -7.5q-8 -96 -8 -241v-116q0 -80 54 -80q18 0 37 6q13 4 13 -4q0 -5 -8 -13
q-52 -47 -138 -47q-92 0 -108 78q-49 -78 -129 -78q-47 0 -71 27q11 -124 41 -176q7 -11 -3 -19q-35 -29 -77.5 -44.5t-60.5 -15.5q-19 0 -19 36q0 27 4 166t4 180z" />
    <glyph glyph-name="paragraph" unicode="&#xb6;" horiz-adv-x="798" 
d="M410 74v592q0 16 -1 22.5t-6 12t-16 5.5q-42 0 -69 -42q-32 -50 -32 -149q0 -154 55 -190q6 -4 14.5 -7.5t12 -6t3.5 -7.5q0 -15 -45 -15q-109 0 -181.5 64t-71.5 166q0 94 67 157q81 77 252 77q4 0 54.5 -1.5t76.5 -1.5h32q3 0 65.5 1.5t87.5 1.5q21 0 21 -10
q0 -9 -17 -10q-4 0 -17 -1t-17 -2q-24 -4 -33 -15t-11 -36q-2 -32 -2 -216v-393q0 -163 2 -191q0 -13 -30 -28.5t-49 -15.5q-6 0 -6 5q0 2 0.5 6.5l1.5 13.5t2 20q6 60 6 190v597q0 13 -1 20t-8 13t-21 6q-43 0 -46 -37q-1 -20 -1 -206v-389q0 -202 3 -233q2 -11 -29 -27
t-50 -16q-2 0 -4 0.5t-3 2t-1 3.5q1 4 4 42q8 90 8 228z" />
    <glyph glyph-name="periodcentered" unicode="&#xb7;" horiz-adv-x="296" 
d="M78 406q50 0 134 -24q22 -7 22 -16q0 -11 -5 -18q-32 -55 -106 -116q-19 -14 -26 -14q-5 0 -5 6q0 4 6 21q14 35 14 78q0 46 -36 65q-11 5 -11 11q0 7 13 7z" />
    <glyph glyph-name="cedilla" unicode="&#xb8;" horiz-adv-x="400" 
d="M220 1h50l-85 -61q126 -12 126 -83q0 -15 -8 -30t-28 -31.5t-62 -26.5t-101 -10q-19 0 -19 10q0 7 22 10q36 6 63.5 23.5t27.5 49.5q0 56 -84 57q-16 2 -16 8q0 3 13 14z" />
    <glyph glyph-name="onesuperior" unicode="&#xb9;" horiz-adv-x="331" 
d="M127 661v146q0 27 -14 27t-46 -10q-16 -5 -19 -5q-10 0 -10 8t10 11q125 55 191 91q13 8 16 8q6 0 6 -10q0 -1 -0.5 -9.5t-1 -22.5t-1 -31.5t-1 -42t-0.5 -49.5v-111q0 -106 4 -133q6 -26 28 -28q20 -2 29 -3q12 -1 12 -8q0 -9 -15 -9q-20 0 -51.5 0.5t-55 1t-24.5 0.5
t-24 -0.5t-53 -1t-48 -0.5q-15 0 -15 8q0 9 14 9q3 0 14.5 1t20.5 2q18 2 24 9.5t7 23.5q3 39 3 128z" />
    <glyph glyph-name="ordmasculine" unicode="&#xba;" horiz-adv-x="515" 
d="M257 319q-100 0 -156 58t-56 136q0 76 56 135.5t161 59.5q92 0 150 -52.5t58 -133.5q0 -88 -58.5 -145.5t-154.5 -57.5zM343 503q0 66 -25.5 107.5t-69.5 41.5q-76 0 -76 -128q0 -63 26 -106t69 -43q31 0 53.5 28.5t22.5 99.5z" />
    <glyph glyph-name="guillemotright" unicode="&#xbb;" horiz-adv-x="635" 
d="M323 463l48 56q12 10 14 10q4 0 44 -48q73 -81 147 -152q18 -19 18 -25t-19 -22q-142 -124 -227 -191q-18 -13 -23 -13q-6 0 -6 5q0 10 13 20l49 56.5l71.5 83.5t34.5 45q-9 14 -37 41l-64 60.5t-52 50.5q-15 14 -15 16q0 3 4 7zM68 463l49 56q12 10 13 10q5 0 45 -48
q52 -58 146 -152q19 -19 19 -25t-20 -22q-142 -124 -227 -191q-16 -13 -23 -13q-6 0 -6 5q0 7 13 20q149 171 156 185q-9 14 -37 41l-64.5 61l-52.5 50q-15 14 -15 16q0 3 4 7z" />
    <glyph glyph-name="onequarter" unicode="&#xbc;" horiz-adv-x="966" 
d="M760 787l36 -24q6 -3 1 -10l-534 -768q-5 -5 -8 -1l-37 22q-5 4 0 11l533 767q5 6 9 3zM145 500v146q0 27 -14 27t-46 -10q-16 -5 -20 -5q-9 0 -9 8t10 11q125 55 191 91q13 8 16 8q6 0 6 -10q0 -1 -0.5 -9.5t-1 -22.5t-1 -31.5t-1 -42t-0.5 -49.5v-111q0 -106 3 -133
q2 -8 4 -13t8.5 -9.5t16.5 -5.5t28 -3q13 -1 13 -8q0 -9 -15 -9q-20 0 -52 0.5t-55 0.5l-24 1q-1 0 -24 -0.5t-53 -1t-48 -0.5q-15 0 -15 8q0 9 13 9q3 0 15 1t21 2q18 2 24 9.5t7 23.5q3 39 3 128zM816 350v-183h34q38 1 50 13q4 3 8 2t4 -7q0 -7 -7.5 -30t-12.5 -31
q-5 -9 -21 -10q-13 -1 -55 -1q0 -30 2 -52q1 -11 2.5 -15.5t7.5 -10.5t17 -7t24 -1q12 -1 12 -10t-14 -9q-21 0 -68 1t-52 1q-10 0 -46.5 -1t-54.5 -1q-13 0 -13 9t12 9h11t12 1q13 1 20 7.5t7.5 11t2.5 16.5q1 15 1 51q-128 0 -178 4q-22 1 -22 8q0 10 15 26
q24 29 116 130.5t141 149.5q28 26 36 26q10 0 10 -26q0 -2 -0.5 -11t-0.5 -25v-35zM699 167v120q-17 -17 -54 -58.5t-51 -60.5q20 -1 105 -1z" />
    <glyph glyph-name="onehalf" unicode="&#xbd;" horiz-adv-x="1007" 
d="M727 787l36 -24q6 -3 1 -10l-534 -768q-4 -5 -8 -1l-37 22q-5 4 0 11l533 767q4 6 9 3zM145 500v146q0 27 -14 27t-46 -10q-16 -5 -20 -5q-9 0 -9 8t10 11q125 55 191 91q13 8 16 8q6 0 6 -10q0 -1 -0.5 -9.5t-1 -22.5t-1 -31.5t-1 -42t-0.5 -49.5v-111q0 -106 3 -133
q2 -8 4 -13t8.5 -9.5t16.5 -5.5t28 -3q13 -1 13 -8q0 -9 -15 -9q-20 0 -52 0.5t-55 0.5l-24 1q-1 0 -24 -0.5t-53 -1t-48 -0.5q-15 0 -15 8q0 9 13 9q3 0 15 1t21 2q18 2 24 9.5t7 23.5q3 39 3 128zM861 -1h-273q-10 0 -10 8q0 7 19 23q2 1 18.5 13.5l24.5 19l26 21.5t29 27
l27 29.5t25.5 34t19.5 36.5t14.5 42t4.5 44q0 63 -21.5 83.5t-57.5 20.5q-35 0 -59 -25q-18 -19 -21 -55q-1 -16 -9 -16t-9 14q-3 18 -3 90q0 11 8 14q54 23 130 23q88 0 135 -35.5t47 -93.5q0 -29 -10 -55.5t-22.5 -45t-36.5 -39.5t-39 -31.5l-43.5 -29t-38.5 -25.5
q-6 -4 1 -4h35q52 0 101 5q30 4 42.5 15t19.5 33q3 13 11 13q7 0 7 -14q0 -8 -7.5 -59t-12.5 -64q-2 -11 -16 -14t-56 -3z" />
    <glyph glyph-name="threequarters" unicode="&#xbe;" horiz-adv-x="988" 
d="M784 787l36 -24q6 -3 1 -10l-534 -768q-5 -5 -9 -1l-36 22q-5 4 0 11l533 767q5 6 9 3zM838 350v-183h34q38 1 50 13q4 3 8 2t4 -7q0 -7 -7.5 -30t-12.5 -31q-5 -9 -21 -10q-13 -1 -55 -1q0 -30 2 -52q1 -11 2.5 -15.5t7.5 -10.5t17 -7t24 -1q12 -1 12 -10t-14 -9
q-21 0 -68 1t-52 1q-10 0 -46.5 -1t-54.5 -1q-13 0 -13 9t12 9h11t12 1q13 1 20 7.5t7.5 11t2.5 16.5q1 15 1 51q-128 0 -178 4q-22 1 -22 8q0 10 15 26q24 29 116 130.5t141 149.5q28 26 36 26q10 0 10 -26q0 -2 -0.5 -11t-0.5 -25v-35zM721 167v120q-17 -17 -54 -58.5
t-51 -60.5q20 -1 105 -1zM180 311q-75 0 -107 16q-16 6 -16 20q-2 57 3 92q2 12 9 12q8 0 8 -12q2 -40 28 -64t71 -24q43 0 68.5 24.5t25.5 76.5q0 46 -23 68t-65 29q-23 4 -23 12t13 10q45 7 63 24t18 58q0 31 -20 51.5t-55 20.5q-79 0 -85 -84q-2 -14 -10 -14q-7 0 -7 13
q-4 76 -4 91q0 10 11 14q56 23 138 23q85 0 125 -29t40 -66q0 -46 -38.5 -70.5t-84.5 -31.5q-1 -1 0 -3q146 -23 146 -113q0 -60 -62 -102t-167 -42z" />
    <glyph glyph-name="questiondown" unicode="&#xbf;" horiz-adv-x="599" 
d="M294 -17q-58 0 -102 11t-69.5 28t-41 40t-21 44t-5.5 43q0 15 2.5 29.5t5 26t10.5 25.5t12 22.5t17 23l18.5 21t23 23l23.5 22l28 24.5t28 25q62 55 62 85q0 16 -11 40q-6 12 -6 18q0 7 8 7q20 0 67 -32q57 -41 57 -84q0 -22 -17 -49q-13 -19 -67 -80q-50 -58 -68 -89.5
t-18 -67.5q0 -42 25.5 -67.5t76.5 -25.5q67 0 108 48q30 33 37 85q3 16 11 16q7 0 10 -17q4 -33 4 -132q0 -10 -11 -17q-78 -46 -197 -46zM308 767q41 0 62.5 -26t21.5 -59q0 -32 -22 -59t-63 -27q-37 0 -60.5 22.5t-23.5 58.5q0 38 24 64t61 26z" />
    <glyph glyph-name="Agrave" unicode="&#xc0;" horiz-adv-x="744" 
d="M439 204h-229q-6 0 -9 -7l-31 -82q-16 -42 -16 -64q0 -27 30 -30q7 -1 20.5 -2.5t14.5 -1.5q18 0 18 -10t-21 -10q-22 0 -63 1.5t-69 1.5q-1 0 -49 -1.5t-78 -1.5q-20 0 -20 10t19 10q21 2 32 4q25 5 42 25.5t34 60.5l267 604q26 58 41 58q12 0 36 -50l262 -591
q25 -58 44.5 -80.5t46.5 -26.5q3 -1 32 -4q19 0 19 -10t-26 -10q-84 0 -276 3q-22 0 -22 9t14 12q17 3 12 18l-67 159q-1 6 -8 6zM239 284h171q8 0 5 5l-88 214q-4 8 -7 0l-85 -214q-2 -5 4 -5zM422 831q0 -8 -12 -8q-20 0 -94 34.5t-130 68.5q-28 19 -28 27q0 6 13 13
q22 14 71 32q15 5 21 5q5 0 18 -19q12 -20 124 -130q17 -17 17 -23z" />
    <glyph glyph-name="Aacute" unicode="&#xc1;" horiz-adv-x="744" 
d="M439 204h-229q-6 0 -9 -7l-31 -82q-16 -42 -16 -64q0 -27 30 -30q7 -1 20.5 -2.5t14.5 -1.5q18 0 18 -10t-21 -10q-22 0 -63 1.5t-69 1.5q-1 0 -49 -1.5t-78 -1.5q-20 0 -20 10t19 10q21 2 32 4q25 5 42 25.5t34 60.5l267 604q26 58 41 58q12 0 36 -50l262 -591
q25 -58 44.5 -80.5t46.5 -26.5q3 -1 32 -4q19 0 19 -10t-26 -10q-84 0 -276 3q-22 0 -22 9t14 12q17 3 12 18l-67 159q-1 6 -8 6zM239 284h171q8 0 5 5l-88 214q-4 8 -7 0l-85 -214q-2 -5 4 -5zM519 991q34 -34 47 -73q7 -16 -5 -16q-23 0 -58 -12q-95 -31 -150 -58
q-16 -8 -23 -8q-8 0 -8 7q0 5 10 18q27 32 70.5 76t63.5 59q23 18 33 18q8 0 20 -11z" />
    <glyph glyph-name="Acircumflex" unicode="&#xc2;" horiz-adv-x="744" 
d="M439 204h-229q-6 0 -9 -7l-31 -82q-16 -42 -16 -64q0 -27 30 -30q7 -1 20.5 -2.5t14.5 -1.5q18 0 18 -10t-21 -10q-22 0 -63 1.5t-69 1.5q-1 0 -49 -1.5t-78 -1.5q-20 0 -20 10t19 10q21 2 32 4q25 5 42 25.5t34 60.5l267 604q26 58 41 58q12 0 36 -50l262 -591
q25 -58 44.5 -80.5t46.5 -26.5q3 -1 32 -4q19 0 19 -10t-26 -10q-84 0 -276 3q-22 0 -22 9t14 12q17 3 12 18l-67 159q-1 6 -8 6zM239 284h171q8 0 5 5l-88 214q-4 8 -7 0l-85 -214q-2 -5 4 -5zM390 977q7 0 23 -10l39 -26.5l56.5 -39t37.5 -25.5q19 -12 19 -19q0 -5 -6 -10
l-51 -37q-9 -6 -18 3q-38 33 -106 75q-11 9 -19 9q-5 0 -20 -7q-32 -15 -130 -72q-16 -10 -24 -10q-10 0 -6 10q2 6 10 12l45.5 35l79.5 61.5t46 37.5q17 13 24 13z" />
    <glyph glyph-name="Atilde" unicode="&#xc3;" horiz-adv-x="744" 
d="M439 204h-229q-6 0 -9 -7l-31 -82q-16 -42 -16 -64q0 -27 30 -30q7 -1 20.5 -2.5t14.5 -1.5q18 0 18 -10t-21 -10q-22 0 -63 1.5t-69 1.5q-1 0 -49 -1.5t-78 -1.5q-20 0 -20 10t19 10q21 2 32 4q25 5 42 25.5t34 60.5l267 604q26 58 41 58q12 0 36 -50l262 -591
q25 -58 44.5 -80.5t46.5 -26.5q3 -1 32 -4q19 0 19 -10t-26 -10q-84 0 -276 3q-22 0 -22 9t14 12q17 3 12 18l-67 159q-1 6 -8 6zM239 284h171q8 0 5 5l-88 214q-4 8 -7 0l-85 -214q-2 -5 4 -5zM460 830q-29 0 -92 25.5t-87 25.5q-21 0 -37.5 -6t-25 -13.5t-22.5 -21.5
q-7 -8 -14 -8q-12 0 0 19q24 43 57 69.5t65 26.5q36 0 93 -22l25 -10t21.5 -8l16 -5t16 -4t14.5 -1q26 0 42.5 10t42.5 37q5 5 10 5q12 0 1 -18q-56 -101 -126 -101z" />
    <glyph glyph-name="Adieresis" unicode="&#xc4;" horiz-adv-x="744" 
d="M439 204h-229q-6 0 -9 -7l-31 -82q-16 -42 -16 -64q0 -27 30 -30q7 -1 20.5 -2.5t14.5 -1.5q18 0 18 -10t-21 -10q-22 0 -63 1.5t-69 1.5q-1 0 -49 -1.5t-78 -1.5q-20 0 -20 10t19 10q21 2 32 4q25 5 42 25.5t34 60.5l267 604q26 58 41 58q12 0 36 -50l262 -591
q25 -58 44.5 -80.5t46.5 -26.5q3 -1 32 -4q19 0 19 -10t-26 -10q-84 0 -276 3q-22 0 -22 9t14 12q17 3 12 18l-67 159q-1 6 -8 6zM239 284h171q8 0 5 5l-88 214q-4 8 -7 0l-85 -214q-2 -5 4 -5zM489 835q-26 0 -40 17t-14 38q0 19 15.5 37t39.5 18q23 0 38.5 -14.5
t15.5 -38.5q0 -25 -15 -41t-40 -16zM246 835q-26 0 -39.5 17t-13.5 38q0 20 14.5 36.5t39.5 16.5q23 0 39 -14.5t16 -36.5q0 -25 -15.5 -41t-40.5 -16z" />
    <glyph glyph-name="Aring" unicode="&#xc5;" horiz-adv-x="744" 
d="M439 204h-229q-6 0 -9 -7l-31 -82q-16 -42 -16 -64q0 -27 30 -30q7 -1 20.5 -2.5t14.5 -1.5q18 0 18 -10t-21 -10q-22 0 -63 1.5t-69 1.5q-1 0 -49 -1.5t-78 -1.5q-20 0 -20 10t19 10q21 2 32 4q25 5 42 25.5t34 60.5l267 604q26 58 41 58q12 0 36 -50l262 -591
q25 -58 44.5 -80.5t46.5 -26.5q3 -1 32 -4q19 0 19 -10t-26 -10q-84 0 -276 3q-22 0 -22 9t14 12q17 3 12 18l-67 159q-1 6 -8 6zM239 284h171q8 0 5 5l-88 214q-4 8 -7 0l-85 -214q-2 -5 4 -5zM344 806q-38 0 -61.5 18t-23.5 45q0 40 38.5 67t98.5 27q44 0 68 -17.5
t24 -45.5q-1 -43 -44.5 -68.5t-99.5 -25.5zM323 887q0 -23 17 -37.5t36 -14.5q23 0 36 14t13 36q0 19 -15 34t-40 15q-18 0 -32.5 -12t-14.5 -35z" />
    <glyph glyph-name="AE" unicode="&#xc6;" horiz-adv-x="1022" 
d="M379 402h108q9 0 9 8v166q0 5 0.5 18.5t0.5 22.5q-6 -8 -59.5 -96l-64.5 -107q-5 -12 6 -12zM487 335h-147q-11 0 -16 -7l-106 -177q-45 -77 -45 -94q0 -32 62 -37q27 -4 28 -8q1 -1 1 -3q0 -12 -21 -12q-34 0 -71 1t-59.5 1.5t-30.5 0.5q-14 0 -59.5 -1.5t-58.5 -1.5
q-23 0 -23 10t26 10q51 0 131 111l186.5 285t179.5 276l34 56q7 8 20 7q36 -2 90 -2q11 0 126.5 0.5t122.5 0.5q34 0 54 4q14 4 17 4q5 0 5 -9q0 -2 -1 -8.5t-2.5 -18.5t-2.5 -25q-5 -65 -6 -91q0 -22 -10 -22q-8 0 -10 15q-2 25 -6 38q-6 18 -18 25.5t-46 10.5
q-55 5 -152 5q-7 0 -7 -10v-255q0 -12 7 -12q49 -2 145 1q61 2 71 19q9 17 16 17t7 -12q0 -3 -3.5 -32t-4.5 -51q-2 -44 -2 -77q0 -24 -9 -24q-8 0 -11 16q0 4 -1 11.5t-1 11.5q-3 23 -17 35t-49 14q-58 4 -142 4q-6 0 -6 -13v-63q0 -17 -0.5 -54.5t-0.5 -53.5
q2 -54 23 -68.5t103 -14.5q64 0 93 12q22 8 32.5 24.5t17.5 53.5q3 19 11 19q9 0 9 -25t-6 -70t-10 -61q-5 -19 -14.5 -23t-39.5 -4q-77 0 -174 3t-141 3q-22 0 -66 -1.5t-72 -1.5q-29 0 -29 10q0 9 19 10q31 4 33 5q19 5 25 28t8 75q3 60 3 152v48q0 10 -9 10z" />
    <glyph glyph-name="Ccedilla" unicode="&#xc7;" horiz-adv-x="820" 
d="M396 -69l78 54q-180 14 -293 108q-126 108 -126 294q0 66 28 143t96 134q64 54 143 78.5t188 24.5q64 0 142 -12q79 -12 99 -13q11 -1 11 -13q0 -3 -1 -12t-2 -24.5t-2 -29.5q-1 -16 -1.5 -60t-1.5 -57q-2 -24 -12 -24t-12 21q-3 59 -38 98q-60 63 -202 63
q-92 0 -147 -48q-88 -76 -88 -253q0 -155 77 -249.5t203 -94.5q68 0 106.5 10t65.5 41q21 23 33 67q7 28 16 28q8 0 8 -18q0 -46 -22 -152q-3 -21 -26 -29q-58 -23 -172 -23h-17q-15 -10 -60 -43q126 -12 126 -83q0 -15 -9 -30t-29.5 -31.5t-63.5 -26.5t-102 -10
q-19 0 -19 10q0 7 22 10q91 15 91 73q0 56 -85 57q-15 2 -15 8q0 3 13 14z" />
    <glyph glyph-name="Egrave" unicode="&#xc8;" horiz-adv-x="684" 
d="M156 287v176q0 167 -3 215q-3 44 -36 52q-5 1 -18.5 2t-14.5 1q-18 1 -18 11q0 9 22 9q30 0 79.5 -1.5t69.5 -1.5q11 0 143 0.5t139 0.5q34 0 54 4q14 4 16 4q6 0 6 -9q0 -2 -0.5 -6.5t-2 -15t-2.5 -22.5q-3 -20 -8 -107q0 -14 -10 -14q-8 0 -10 14q0 17 -5 35
q-4 19 -18 28t-48 12q-55 5 -150 5q-8 0 -8 -10v-220q0 -12 8 -12q48 -2 145 1q38 2 51.5 6t21.5 17q9 13 14 13q6 0 6 -12q0 -4 -1.5 -16.5t-3.5 -32.5t-3 -36q-1 -23 -1 -83q0 -19 -9 -19q-7 0 -11 16l-3 23q-3 23 -17.5 35t-49.5 14q-56 4 -141 4q-6 0 -6 -13v-69v-38
v-52v-41q1 -54 23 -70t103 -16q62 0 93 12q21 8 31.5 26t17.5 53q3 18 12 18t9 -22q0 -27 -6 -72t-10 -62q-5 -19 -13.5 -23t-37.5 -4q-73 0 -171.5 3t-146.5 3q-23 0 -69.5 -1.5t-74.5 -1.5q-24 0 -24 10t20 10q21 2 30 4q19 3 25.5 27t8.5 78q3 60 3 161zM425 827
q0 -8 -11 -8q-20 0 -94.5 34.5t-129.5 68.5q-29 18 -29 27q0 6 13 13q21 12 71 32q15 5 22 5q4 0 17 -19q15 -23 124 -130q17 -15 17 -23z" />
    <glyph glyph-name="Eacute" unicode="&#xc9;" horiz-adv-x="684" 
d="M156 287v176q0 167 -3 215q-3 44 -36 52q-5 1 -18.5 2t-14.5 1q-18 1 -18 11q0 9 22 9q30 0 79.5 -1.5t69.5 -1.5q11 0 143 0.5t139 0.5q34 0 54 4q14 4 16 4q6 0 6 -9q0 -2 -0.5 -6.5t-2 -15t-2.5 -22.5q-3 -20 -8 -107q0 -14 -10 -14q-8 0 -10 14q0 17 -5 35
q-4 19 -18 28t-48 12q-55 5 -150 5q-8 0 -8 -10v-220q0 -12 8 -12q48 -2 145 1q38 2 51.5 6t21.5 17q9 13 14 13q6 0 6 -12q0 -4 -1.5 -16.5t-3.5 -32.5t-3 -36q-1 -23 -1 -83q0 -19 -9 -19q-7 0 -11 16l-3 23q-3 23 -17.5 35t-49.5 14q-56 4 -141 4q-6 0 -6 -13v-69v-38
v-52v-41q1 -54 23 -70t103 -16q62 0 93 12q21 8 31.5 26t17.5 53q3 18 12 18t9 -22q0 -27 -6 -72t-10 -62q-5 -19 -13.5 -23t-37.5 -4q-73 0 -171.5 3t-146.5 3q-23 0 -69.5 -1.5t-74.5 -1.5q-24 0 -24 10t20 10q21 2 30 4q19 3 25.5 27t8.5 78q3 60 3 161zM498 983
q34 -34 48 -72q5 -16 -6 -16q-19 0 -58 -12q-86 -28 -150 -58q-18 -9 -22 -9q-9 0 -9 7q0 6 10 18q27 32 70.5 75.5t64.5 60.5t32 17q9 0 20 -11z" />
    <glyph glyph-name="Ecircumflex" unicode="&#xca;" horiz-adv-x="684" 
d="M156 287v176q0 167 -3 215q-3 44 -36 52q-5 1 -18.5 2t-14.5 1q-18 1 -18 11q0 9 22 9q30 0 79.5 -1.5t69.5 -1.5q11 0 143 0.5t139 0.5q34 0 54 4q14 4 16 4q6 0 6 -9q0 -2 -0.5 -6.5t-2 -15t-2.5 -22.5q-3 -20 -8 -107q0 -14 -10 -14q-8 0 -10 14q0 17 -5 35
q-4 19 -18 28t-48 12q-55 5 -150 5q-8 0 -8 -10v-220q0 -12 8 -12q48 -2 145 1q38 2 51.5 6t21.5 17q9 13 14 13q6 0 6 -12q0 -4 -1.5 -16.5t-3.5 -32.5t-3 -36q-1 -23 -1 -83q0 -19 -9 -19q-7 0 -11 16l-3 23q-3 23 -17.5 35t-49.5 14q-56 4 -141 4q-6 0 -6 -13v-69v-38
v-52v-41q1 -54 23 -70t103 -16q62 0 93 12q21 8 31.5 26t17.5 53q3 18 12 18t9 -22q0 -27 -6 -72t-10 -62q-5 -19 -13.5 -23t-37.5 -4q-73 0 -171.5 3t-146.5 3q-23 0 -69.5 -1.5t-74.5 -1.5q-24 0 -24 10t20 10q21 2 30 4q19 3 25.5 27t8.5 78q3 60 3 161zM367 989
q5 0 23 -11q36 -23 134 -91q18 -12 18 -19q0 -5 -6 -10l-51 -37q-8 -7 -18 3q-33 29 -105 76q-14 8 -19 8q-6 0 -21 -7q-40 -18 -129 -72q-17 -10 -25 -10q-10 0 -6 10q3 6 11 12q8 7 85.5 67.5t84.5 66.5q17 14 24 14z" />
    <glyph glyph-name="Edieresis" unicode="&#xcb;" horiz-adv-x="684" 
d="M156 287v176q0 167 -3 215q-3 44 -36 52q-5 1 -18.5 2t-14.5 1q-18 1 -18 11q0 9 22 9q30 0 79.5 -1.5t69.5 -1.5q11 0 143 0.5t139 0.5q34 0 54 4q14 4 16 4q6 0 6 -9q0 -2 -0.5 -6.5t-2 -15t-2.5 -22.5q-3 -20 -8 -107q0 -14 -10 -14q-8 0 -10 14q0 17 -5 35
q-4 19 -18 28t-48 12q-55 5 -150 5q-8 0 -8 -10v-220q0 -12 8 -12q48 -2 145 1q38 2 51.5 6t21.5 17q9 13 14 13q6 0 6 -12q0 -4 -1.5 -16.5t-3.5 -32.5t-3 -36q-1 -23 -1 -83q0 -19 -9 -19q-7 0 -11 16l-3 23q-3 23 -17.5 35t-49.5 14q-56 4 -141 4q-6 0 -6 -13v-69v-38
v-52v-41q1 -54 23 -70t103 -16q62 0 93 12q21 8 31.5 26t17.5 53q3 18 12 18t9 -22q0 -27 -6 -72t-10 -62q-5 -19 -13.5 -23t-37.5 -4q-73 0 -171.5 3t-146.5 3q-23 0 -69.5 -1.5t-74.5 -1.5q-24 0 -24 10t20 10q21 2 30 4q19 3 25.5 27t8.5 78q3 60 3 161zM475 836
q-26 0 -40.5 17.5t-14.5 38.5q0 19 15.5 37t39.5 18q23 0 39 -15t16 -38q0 -25 -15 -41.5t-40 -16.5zM232 836q-26 0 -39.5 17t-13.5 39q0 20 14.5 36.5t39.5 16.5q24 0 39.5 -14.5t15.5 -37.5q0 -25 -15.5 -41t-40.5 -16z" />
    <glyph glyph-name="Igrave" unicode="&#xcc;" horiz-adv-x="489" 
d="M156 287v176q0 184 -3 216q-3 44 -35 50q-8 2 -30 4q-19 0 -19 11q0 9 22 9q18 0 52.5 -0.5t63 -1.5t30.5 -1q1 0 71.5 1.5t91.5 1.5q22 0 22 -10t-19 -10q-27 -3 -29 -3q-20 -4 -28.5 -15.5t-9.5 -38.5q-3 -32 -3 -213v-176q0 -161 5 -214q3 -43 38 -51q11 -2 44 -5
q21 0 21 -10t-21 -10q-30 0 -73.5 0.5t-76 1.5t-34.5 1q-1 0 -30.5 -1t-64 -1.5t-49.5 -0.5q-24 0 -24 10t20 10q20 2 31 4q26 4 31 54q6 63 6 212zM289 825q0 -8 -11 -8q-20 0 -94.5 34.5t-129.5 68.5q-29 18 -29 27q0 6 13 13q21 12 71 32q15 5 22 5q4 0 17 -19
q15 -23 124 -130q17 -15 17 -23z" />
    <glyph glyph-name="Iacute" unicode="&#xcd;" horiz-adv-x="489" 
d="M156 287v176q0 184 -3 216q-3 44 -35 50q-8 2 -30 4q-19 0 -19 11q0 9 22 9q18 0 52.5 -0.5t63 -1.5t30.5 -1q1 0 71.5 1.5t91.5 1.5q22 0 22 -10t-19 -10q-27 -3 -29 -3q-20 -4 -28.5 -15.5t-9.5 -38.5q-3 -32 -3 -213v-176q0 -161 5 -214q3 -43 38 -51q11 -2 44 -5
q21 0 21 -10t-21 -10q-30 0 -73.5 0.5t-76 1.5t-34.5 1q-1 0 -30.5 -1t-64 -1.5t-49.5 -0.5q-24 0 -24 10t20 10q20 2 31 4q26 4 31 54q6 63 6 212zM393 983q32 -27 48 -72q5 -16 -6 -16q-18 0 -57 -12q-95 -31 -151 -58q-14 -8 -22 -8t-8 6q0 5 9 19q27 32 71 75.5t64 59.5
q21 17 32 17q10 0 20 -11z" />
    <glyph glyph-name="Icircumflex" unicode="&#xce;" horiz-adv-x="489" 
d="M156 287v176q0 184 -3 216q-3 44 -35 50q-8 2 -30 4q-19 0 -19 11q0 9 22 9q18 0 52.5 -0.5t63 -1.5t30.5 -1q1 0 71.5 1.5t91.5 1.5q22 0 22 -10t-19 -10q-27 -3 -29 -3q-20 -4 -28.5 -15.5t-9.5 -38.5q-3 -32 -3 -213v-176q0 -161 5 -214q3 -43 38 -51q11 -2 44 -5
q21 0 21 -10t-21 -10q-30 0 -73.5 0.5t-76 1.5t-34.5 1q-1 0 -30.5 -1t-64 -1.5t-49.5 -0.5q-24 0 -24 10t20 10q20 2 31 4q26 4 31 54q6 63 6 212zM260 988q7 0 23 -11l134 -90q18 -13 18 -19q0 -5 -6 -11l-51 -36q-8 -6 -18 2q-39 35 -105 76q-11 8 -19 8t-21 -6
q-42 -20 -129 -73q-17 -9 -25 -9q-10 0 -6 10q3 5 11 12q166 130 170 134q17 13 24 13z" />
    <glyph glyph-name="Idieresis" unicode="&#xcf;" horiz-adv-x="489" 
d="M156 287v176q0 184 -3 216q-3 44 -35 50q-8 2 -30 4q-19 0 -19 11q0 9 22 9q18 0 52.5 -0.5t63 -1.5t30.5 -1q1 0 71.5 1.5t91.5 1.5q22 0 22 -10t-19 -10q-27 -3 -29 -3q-20 -4 -28.5 -15.5t-9.5 -38.5q-3 -32 -3 -213v-176q0 -161 5 -214q3 -43 38 -51q11 -2 44 -5
q21 0 21 -10t-21 -10q-30 0 -73.5 0.5t-76 1.5t-34.5 1q-1 0 -30.5 -1t-64 -1.5t-49.5 -0.5q-24 0 -24 10t20 10q20 2 31 4q26 4 31 54q6 63 6 212zM365 836q-26 0 -40.5 17.5t-14.5 38.5q0 19 15.5 37t39.5 18t39.5 -14.5t15.5 -38.5q0 -25 -15 -41.5t-40 -16.5zM122 836
q-26 0 -39.5 17t-13.5 39q0 20 14.5 36.5t39.5 16.5q24 0 39.5 -14.5t15.5 -37.5q0 -25 -15.5 -41t-40.5 -16z" />
    <glyph glyph-name="Eth" unicode="&#xd0;" horiz-adv-x="956" 
d="M166 425v38q0 175 -2 207q-2 27 -10.5 42t-34.5 18q-3 0 -15 1t-22 2q-19 1 -19 11q0 9 23 9q10 0 73.5 -1.5t87.5 -1.5q15 0 35.5 0.5t57.5 1t69 0.5q141 -1 236.5 -26t159.5 -90q96 -96 96 -254q0 -85 -31.5 -157.5t-78.5 -116.5q-117 -119 -342 -119q-63 0 -107 4
q-68 7 -99 7q-48 0 -76 -1q-56 -2 -69 -2q-20 0 -20 10t19 10q16 1 31 4q29 4 33 61q5 80 5 205v85h-100q-7 0 -8.5 2t-0.5 9l4 31q1 11 11 11h94zM343 372v-21q0 -156 2 -194q3 -58 17 -72q29 -36 103 -36q115 0 182 70q65 65 65 235q0 127 -75 229q-84 109 -230 109
q-40 0 -54 -8q-9 -4 -9 -18q1 -18 0 -84.5t-1 -102.5v-54h173q6 0 7.5 -2t1.5 -9l-4 -32q-1 -10 -11 -10h-167z" />
    <glyph glyph-name="Ntilde" unicode="&#xd1;" horiz-adv-x="943" 
d="M129 144q2 90 4 298t5 278q2 48 17 48q9 0 39 -24q14 -12 323 -295l198 -185l-6 375q-2 46 -10.5 65t-36.5 24q-13 3 -44 5q-18 0 -18 10t20 10t72.5 -1.5t72.5 -1.5q9 0 50 1.5t64 1.5q22 0 22 -9q0 -11 -17 -11q-20 -2 -25 -3q-25 -3 -34.5 -20t-11.5 -63
q-4 -89 -6 -189.5t-3.5 -223t-2.5 -189.5q0 -62 -20 -62t-112 81l-216 194l-229 216l10 -341q2 -58 8 -80t26 -29q7 -2 53 -7q20 -1 20 -10q0 -10 -24 -10q-18 0 -58.5 1.5t-70.5 1.5q-10 0 -62 -1.5t-74 -1.5t-22 10t19 10q2 0 14.5 1t18.5 2q28 4 36.5 27.5t10.5 96.5z
M569 838q-29 0 -91.5 25.5t-86.5 25.5q-31 0 -48.5 -10t-36.5 -31q-7 -8 -14 -8q-12 0 0 19q24 43 57 69.5t65 26.5q36 0 92 -22q10 -4 25.5 -9.5t22 -8t16 -5.5t16 -4t14.5 -1q26 0 42.5 10t42.5 37q5 5 10 5q12 0 1 -18q-57 -101 -127 -101z" />
    <glyph glyph-name="Ograve" unicode="&#xd2;" horiz-adv-x="951" 
d="M476 -17q-106 0 -189.5 35.5t-132.5 93t-74 124.5t-25 136q0 77 26 146.5t77 125.5t135 89.5t190 33.5q185 0 299 -108t114 -265q0 -179 -114 -295t-306 -116zM506 47q23 0 44 4.5t49 23t48 49t34.5 89t14.5 137.5q0 89 -23.5 166.5t-81 133t-141.5 55.5
q-195 0 -195 -288q0 -98 26 -180t84.5 -136t140.5 -54zM548 835q0 -8 -12 -8q-20 0 -94 34.5t-130 68.5q-28 19 -28 27q0 6 13 13q30 19 71 32q15 5 21 5q5 0 18 -19q12 -20 124 -130q17 -15 17 -23z" />
    <glyph glyph-name="Oacute" unicode="&#xd3;" horiz-adv-x="951" 
d="M476 -17q-106 0 -189.5 35.5t-132.5 93t-74 124.5t-25 136q0 77 26 146.5t77 125.5t135 89.5t190 33.5q185 0 299 -108t114 -265q0 -179 -114 -295t-306 -116zM506 47q23 0 44 4.5t49 23t48 49t34.5 89t14.5 137.5q0 89 -23.5 166.5t-81 133t-141.5 55.5
q-195 0 -195 -288q0 -98 26 -180t84.5 -136t140.5 -54zM604 986q34 -34 48 -73q5 -15 -6 -15q-21 0 -58 -13q-95 -31 -150 -58q-20 -8 -22 -8q-9 0 -9 7q0 5 10 18q28 33 72 76.5t63 58.5q22 18 32 18q8 0 20 -11z" />
    <glyph glyph-name="Ocircumflex" unicode="&#xd4;" horiz-adv-x="951" 
d="M476 -17q-106 0 -189.5 35.5t-132.5 93t-74 124.5t-25 136q0 77 26 146.5t77 125.5t135 89.5t190 33.5q185 0 299 -108t114 -265q0 -179 -114 -295t-306 -116zM506 47q23 0 44 4.5t49 23t48 49t34.5 89t14.5 137.5q0 89 -23.5 166.5t-81 133t-141.5 55.5
q-195 0 -195 -288q0 -98 26 -180t84.5 -136t140.5 -54zM491 990q7 0 23 -10l68 -46.5l65 -44.5q19 -13 19 -19q0 -5 -7 -10l-50 -37q-9 -6 -18 3q-38 33 -106 75q-13 9 -19 9q-5 0 -20 -7q-32 -15 -130 -72q-16 -10 -25 -10t-5 10q2 6 10 12q6 5 84 65.5t87 68.5
q16 13 24 13z" />
    <glyph glyph-name="Otilde" unicode="&#xd5;" horiz-adv-x="951" 
d="M476 -17q-106 0 -189.5 35.5t-132.5 93t-74 124.5t-25 136q0 77 26 146.5t77 125.5t135 89.5t190 33.5q185 0 299 -108t114 -265q0 -179 -114 -295t-306 -116zM506 47q23 0 44 4.5t49 23t48 49t34.5 89t14.5 137.5q0 89 -23.5 166.5t-81 133t-141.5 55.5
q-195 0 -195 -288q0 -98 26 -180t84.5 -136t140.5 -54zM552 848q-29 0 -92 25t-87 25q-31 0 -48 -9.5t-37 -30.5q-7 -8 -14 -8q-12 0 0 18q25 44 57.5 70t65.5 26q35 0 92 -22q13 -4 31 -11t25 -9.5t17.5 -4.5t19.5 -2q26 0 42.5 9.5t42.5 36.5q4 5 11 5q11 0 0 -17
q-55 -101 -126 -101z" />
    <glyph glyph-name="Odieresis" unicode="&#xd6;" horiz-adv-x="951" 
d="M476 -17q-106 0 -189.5 35.5t-132.5 93t-74 124.5t-25 136q0 77 26 146.5t77 125.5t135 89.5t190 33.5q185 0 299 -108t114 -265q0 -179 -114 -295t-306 -116zM506 47q23 0 44 4.5t49 23t48 49t34.5 89t14.5 137.5q0 89 -23.5 166.5t-81 133t-141.5 55.5
q-195 0 -195 -288q0 -98 26 -180t84.5 -136t140.5 -54zM596 846q-26 0 -40.5 17t-14.5 38q0 19 15.5 37t39.5 18t39 -14.5t15 -38.5q0 -25 -15 -41t-39 -16zM352 846q-26 0 -39 17t-13 38t14 37t39 16q23 0 39 -14.5t16 -36.5q0 -25 -15.5 -41t-40.5 -16z" />
    <glyph glyph-name="multiply" unicode="&#xd7;" horiz-adv-x="693" 
d="M510 123l-164 161l-165 -165l-78 79l167 164l-167 165l78 78l165 -164l166 167l78 -78l-166 -167l162 -164z" />
    <glyph glyph-name="Oslash" unicode="&#xd8;" horiz-adv-x="951" 
d="M826 746l-62 -71q64 -52 98 -125t34 -156q0 -179 -114 -295t-306 -116q-148 0 -250 68l-79 -91q-5 -4 -9 0l-30 27q-5 6 2 15l72 83q-63 55 -95 132t-32 155q0 77 26 146.5t77 125.5t135 89.5t190 33.5q136 0 236 -61l66 76q5 5 13 -1l28 -27q5 -5 0 -8zM291 211l340 393
q-67 101 -181 101q-195 0 -195 -288q0 -115 36 -206zM658 552l-340 -394q68 -111 188 -111q23 0 44 4.5t49 23t48 49t34.5 89t14.5 137.5q0 111 -38 202z" />
    <glyph glyph-name="Ugrave" unicode="&#xd9;" horiz-adv-x="875" 
d="M302 463v-150q0 -102 17 -153.5t59 -81.5q43 -28 100 -28q67 0 110 37q20 17 32 43.5t17 66.5t6 67t1 79v120q0 173 -2 205q-2 30 -10.5 43.5t-32.5 17.5q-4 1 -37 4q-18 0 -18 10t23 10q34 0 82.5 -1.5t51.5 -1.5q5 0 54.5 1.5t77.5 1.5q21 0 21 -10q0 -9 -17 -10
q-21 -2 -31 -4q-20 -4 -28 -17t-10 -44q-3 -48 -3 -205v-98q0 -42 -1 -70t-7 -67t-16 -67.5t-30 -58.5t-48 -53q-79 -66 -208 -66q-161 0 -238 67q-93 77 -93 261v152q0 183 -3 215q-2 22 -8 32.5t-23 15.5q-9 3 -43 7q-21 1 -21 11q0 9 27 9q26 0 89 -1l64 -2l71 2
q71 1 92 1q22 0 22 -9q0 -10 -18 -11q-29 -3 -33 -4q-19 -4 -26 -18t-9 -41q-3 -48 -3 -207zM518 821q0 -8 -12 -8q-20 0 -94.5 34.5t-129.5 68.5q-29 19 -29 27q0 6 13 13q24 14 72 32q15 5 21 5t17 -19q17 -27 125 -130q17 -17 17 -23z" />
    <glyph glyph-name="Uacute" unicode="&#xda;" horiz-adv-x="875" 
d="M302 463v-150q0 -102 17 -153.5t59 -81.5q43 -28 100 -28q67 0 110 37q20 17 32 43.5t17 66.5t6 67t1 79v120q0 173 -2 205q-2 30 -10.5 43.5t-32.5 17.5q-4 1 -37 4q-18 0 -18 10t23 10q34 0 82.5 -1.5t51.5 -1.5q5 0 54.5 1.5t77.5 1.5q21 0 21 -10q0 -9 -17 -10
q-21 -2 -31 -4q-20 -4 -28 -17t-10 -44q-3 -48 -3 -205v-98q0 -42 -1 -70t-7 -67t-16 -67.5t-30 -58.5t-48 -53q-79 -66 -208 -66q-161 0 -238 67q-93 77 -93 261v152q0 183 -3 215q-2 22 -8 32.5t-23 15.5q-9 3 -43 7q-21 1 -21 11q0 9 27 9q26 0 89 -1l64 -2l71 2
q71 1 92 1q22 0 22 -9q0 -10 -18 -11q-29 -3 -33 -4q-19 -4 -26 -18t-9 -41q-3 -48 -3 -207zM592 983q32 -27 48 -72q5 -16 -6 -16q-18 0 -57 -12q-95 -31 -151 -58q-14 -8 -22 -8q-9 0 -9 6t10 19q27 32 71 75.5t64 59.5q21 17 32 17q10 0 20 -11z" />
    <glyph glyph-name="Ucircumflex" unicode="&#xdb;" horiz-adv-x="875" 
d="M302 463v-150q0 -102 17 -153.5t59 -81.5q43 -28 100 -28q67 0 110 37q20 17 32 43.5t17 66.5t6 67t1 79v120q0 173 -2 205q-2 30 -10.5 43.5t-32.5 17.5q-4 1 -37 4q-18 0 -18 10t23 10q34 0 82.5 -1.5t51.5 -1.5q5 0 54.5 1.5t77.5 1.5q21 0 21 -10q0 -9 -17 -10
q-21 -2 -31 -4q-20 -4 -28 -17t-10 -44q-3 -48 -3 -205v-98q0 -42 -1 -70t-7 -67t-16 -67.5t-30 -58.5t-48 -53q-79 -66 -208 -66q-161 0 -238 67q-93 77 -93 261v152q0 183 -3 215q-2 22 -8 32.5t-23 15.5q-9 3 -43 7q-21 1 -21 11q0 9 27 9q26 0 89 -1l64 -2l71 2
q71 1 92 1q22 0 22 -9q0 -10 -18 -11q-29 -3 -33 -4q-19 -4 -26 -18t-9 -41q-3 -48 -3 -207zM470 986q7 0 23 -10l39 -26.5l56.5 -39t37.5 -25.5q19 -12 19 -19q0 -5 -6 -10l-51 -37q-9 -6 -18 3q-38 33 -106 75q-11 9 -19 9q-5 0 -20 -7q-32 -15 -130 -72q-16 -10 -24 -10
q-10 0 -6 10q2 6 10 12l45.5 35l79.5 61.5t46 37.5q17 13 24 13z" />
    <glyph glyph-name="Udieresis" unicode="&#xdc;" horiz-adv-x="875" 
d="M302 463v-150q0 -102 17 -153.5t59 -81.5q43 -28 100 -28q67 0 110 37q20 17 32 43.5t17 66.5t6 67t1 79v120q0 173 -2 205q-2 30 -10.5 43.5t-32.5 17.5q-4 1 -37 4q-18 0 -18 10t23 10q34 0 82.5 -1.5t51.5 -1.5q5 0 54.5 1.5t77.5 1.5q21 0 21 -10q0 -9 -17 -10
q-21 -2 -31 -4q-20 -4 -28 -17t-10 -44q-3 -48 -3 -205v-98q0 -42 -1 -70t-7 -67t-16 -67.5t-30 -58.5t-48 -53q-79 -66 -208 -66q-161 0 -238 67q-93 77 -93 261v152q0 183 -3 215q-2 22 -8 32.5t-23 15.5q-9 3 -43 7q-21 1 -21 11q0 9 27 9q26 0 89 -1l64 -2l71 2
q71 1 92 1q22 0 22 -9q0 -10 -18 -11q-29 -3 -33 -4q-19 -4 -26 -18t-9 -41q-3 -48 -3 -207zM583 838q-26 0 -40.5 17.5t-14.5 38.5q0 19 15.5 37t39.5 18q23 0 39 -15t16 -38q0 -25 -15 -41.5t-40 -16.5zM340 838q-26 0 -39.5 17t-13.5 39q0 20 14.5 36.5t39.5 16.5
q24 0 39.5 -14.5t15.5 -37.5q0 -25 -15.5 -41t-40.5 -16z" />
    <glyph glyph-name="Yacute" unicode="&#xdd;" horiz-adv-x="706" 
d="M266 179v77q0 26 -4 45.5t-8.5 30t-15.5 31.5q-27 50 -85.5 147.5t-84.5 136.5q-29 45 -43.5 59.5t-37.5 21.5q-8 3 -26 5q-15 1 -15 11q0 9 20 9q21 0 78 -1.5t76 -1.5q3 0 54.5 1.5t88.5 1.5q19 0 19 -8q0 -9 -20 -13q-31 -3 -31 -21q0 -10 10 -29l157 -281
q123 232 134 255q16 34 16 51q0 19 -36 25q-17 4 -17 12q0 9 22 9q21 0 57.5 -1.5t55.5 -1.5q6 0 55.5 1.5t59.5 1.5q20 0 20 -9q0 -11 -20 -11q-19 -1 -39 -8q-6 -2 -11 -5t-9.5 -6.5l-7.5 -6t-7.5 -7.5t-6.5 -7.5l-7 -9t-7 -9.5q-26 -32 -103.5 -165t-87.5 -164
q-16 -45 -16 -95v-71q0 -57 3 -99q1 -17 3 -25.5t11.5 -18.5t26.5 -13q11 -2 32 -4t23 -2q16 -1 16 -11q0 -9 -20 -9q-41 0 -108.5 1.5t-79.5 1.5t-71 -1.5t-84 -1.5q-20 0 -20 11q0 9 18 9q32 4 35 5q31 8 34 54q4 56 4 103zM533 981q32 -27 48 -72q5 -16 -6 -16
q-18 0 -57 -12q-95 -31 -151 -58q-14 -8 -22 -8q-9 0 -9 6t10 19q27 32 71 75.5t64 59.5q21 17 32 17q10 0 20 -11z" />
    <glyph glyph-name="Thorn" unicode="&#xde;" horiz-adv-x="746" 
d="M335 673q0 -13 -0.5 -28t-1 -23t-0.5 -13q1 0 29 0.5t55 0.5q155 0 223 -62q52 -50 52 -127q0 -76 -43 -132.5t-105 -82t-132 -25.5q-24 0 -31 2q-11 4 -11 9q0 11 24 11q59 0 92.5 46.5t33.5 113.5q0 99 -46 150q-37 41 -103 41q-17 0 -26 -3q-12 -2 -12 -24v-240
q0 -154 5 -213q2 -26 10 -37t30 -16q6 -1 43 -4q18 0 18 -10t-21 -10q-30 0 -73 0.5t-75 1.5t-34 1t-63.5 -1.5t-80.5 -1.5q-25 0 -25 10t20 10q27 3 32 4q26 6 31 55q6 63 6 211v176q0 184 -3 216q-3 45 -36 51q-6 1 -18.5 2t-14.5 1q-18 1 -18 11q0 9 21 9q19 0 54.5 -0.5
t64.5 -1.5t31 -1q1 0 71 1.5t94 1.5q23 0 23 -9q0 -8 -23 -12q-5 -1 -14.5 -2.5t-14.5 -2.5q-20 -4 -28 -16t-10 -38z" />
    <glyph glyph-name="germandbls" unicode="&#xdf;" horiz-adv-x="777" 
d="M131 249v175q0 143 -3 201q0 6 6 10q125 28 271 28q139 0 198 -43t59 -100q1 -42 -30 -75t-79 -53q40 -23 67 -42t55 -46t42 -59.5t14 -69.5q0 -48 -24.5 -89.5t-69.5 -65.5q-57 -33 -141 -33q-67 0 -118 22q-17 7 -17 29q0 48 5 105q2 20 11 20q8 0 10 -13q1 -3 2 -8.5
t2 -10t2 -8.5q12 -40 44 -62.5t70 -22.5q40 0 62 24t22 52q0 30 -14 58t-61 65q-66 52 -141 89q-25 13 -25 21q0 10 25 18q81 18 113.5 49t32.5 75q0 48 -36 81.5t-126 33.5q-32 0 -50 -5q-4 0 -4 -7q-4 -50 -4 -160v-183q0 -211 17 -237q4 -4 3 -9.5t-7 -5.5
q-27 0 -52.5 0.5t-39.5 1.5t-15 1q-2 0 -61.5 -1.5t-75.5 -1.5q-19 0 -19 9t17 11q4 1 12.5 1.5t13.5 0.5q27 4 32 47q5 60 5 183z" />
    <glyph glyph-name="agrave" unicode="&#xe0;" 
d="M400 162h-207q-7 0 -10 -9l-21 -51q-15 -37 -15 -53q0 -27 56 -32h5q16 -1 16 -9q0 -11 -17 -11q-21 0 -60 1.5t-65 1.5q-1 0 -43 -1.5t-68 -1.5q-18 0 -18 10t16 10q34 4 53.5 19t38.5 57l240 512q27 59 42 59q7 0 14 -10t21 -37l237 -506q24 -50 40 -69t41 -23
q16 -2 20 -2q17 0 17 -10t-18 -10q-208 2 -258 3q-18 0 -18 9q0 6 12 10q13 5 13 8q1 3 -1 7l-55 123q-2 5 -8 5zM221 241h150q7 0 5 4l-79 179q-2 4 -5 -1l-74 -178q-1 -4 3 -4zM393 721q0 -9 -12 -9q-20 0 -93 34.5t-128 68.5q-28 19 -28 28q0 4 13 12q23 16 71 31
q15 5 21 5t17 -19q16 -26 122 -129q17 -17 17 -22z" />
    <glyph glyph-name="aacute" unicode="&#xe1;" 
d="M400 162h-207q-7 0 -10 -9l-21 -51q-15 -37 -15 -53q0 -27 56 -32h5q16 -1 16 -9q0 -11 -17 -11q-21 0 -60 1.5t-65 1.5q-1 0 -43 -1.5t-68 -1.5q-18 0 -18 10t16 10q34 4 53.5 19t38.5 57l240 512q27 59 42 59q7 0 14 -10t21 -37l237 -506q24 -50 40 -69t41 -23
q16 -2 20 -2q17 0 17 -10t-18 -10q-208 2 -258 3q-18 0 -18 9q0 6 12 10q13 5 13 8q1 3 -1 7l-55 123q-2 5 -8 5zM221 241h150q7 0 5 4l-79 179q-2 4 -5 -1l-74 -178q-1 -4 3 -4zM484 881q33 -33 47 -71q5 -17 -5 -17q-17 2 -58 -12q-83 -26 -148 -58q-15 -8 -22 -9
q-9 2 -9 7q0 6 10 18q27 33 70.5 76.5t62.5 58.5q19 18 31 18q9 0 21 -11z" />
    <glyph glyph-name="acircumflex" unicode="&#xe2;" 
d="M400 162h-207q-7 0 -10 -9l-21 -51q-15 -37 -15 -53q0 -27 56 -32h5q16 -1 16 -9q0 -11 -17 -11q-21 0 -60 1.5t-65 1.5q-1 0 -43 -1.5t-68 -1.5q-18 0 -18 10t16 10q34 4 53.5 19t38.5 57l240 512q27 59 42 59q7 0 14 -10t21 -37l237 -506q24 -50 40 -69t41 -23
q16 -2 20 -2q17 0 17 -10t-18 -10q-208 2 -258 3q-18 0 -18 9q0 6 12 10q13 5 13 8q1 3 -1 7l-55 123q-2 5 -8 5zM221 241h150q7 0 5 4l-79 179q-2 4 -5 -1l-74 -178q-1 -4 3 -4zM357 874q8 0 24 -11l122 -82q19 -13 19 -19q0 -5 -6 -11l-51 -34q-9 -6 -18 3q-33 29 -95 67
q-13 9 -19 9t-21 -7q-54 -26 -119 -64q-16 -10 -25 -10q-10 0 -5 11q3 5 10 11t79.5 61.5l81.5 62.5q16 13 23 13z" />
    <glyph glyph-name="atilde" unicode="&#xe3;" 
d="M400 162h-207q-7 0 -10 -9l-21 -51q-15 -37 -15 -53q0 -27 56 -32h5q16 -1 16 -9q0 -11 -17 -11q-21 0 -60 1.5t-65 1.5q-1 0 -43 -1.5t-68 -1.5q-18 0 -18 10t16 10q34 4 53.5 19t38.5 57l240 512q27 59 42 59q7 0 14 -10t21 -37l237 -506q24 -50 40 -69t41 -23
q16 -2 20 -2q17 0 17 -10t-18 -10q-208 2 -258 3q-18 0 -18 9q0 6 12 10q13 5 13 8q1 3 -1 7l-55 123q-2 5 -8 5zM221 241h150q7 0 5 4l-79 179q-2 4 -5 -1l-74 -178q-1 -4 3 -4zM417 723q-26 0 -84 24.5t-80 24.5q-20 0 -36 -7t-22.5 -12.5t-20.5 -19.5q-8 -8 -13 -8
q-10 0 -1 18q24 42 54.5 67.5t59.5 25.5q32 0 85 -21q67 -27 87 -27q24 0 39.5 9t38.5 35q5 5 10 5q4 0 4 -5.5t-3 -11.5q-53 -97 -118 -97z" />
    <glyph glyph-name="adieresis" unicode="&#xe4;" 
d="M400 162h-207q-7 0 -10 -9l-21 -51q-15 -37 -15 -53q0 -27 56 -32h5q16 -1 16 -9q0 -11 -17 -11q-21 0 -60 1.5t-65 1.5q-1 0 -43 -1.5t-68 -1.5q-18 0 -18 10t16 10q34 4 53.5 19t38.5 57l240 512q27 59 42 59q7 0 14 -10t21 -37l237 -506q24 -50 40 -69t41 -23
q16 -2 20 -2q17 0 17 -10t-18 -10q-208 2 -258 3q-18 0 -18 9q0 6 12 10q13 5 13 8q1 3 -1 7l-55 123q-2 5 -8 5zM221 241h150q7 0 5 4l-79 179q-2 4 -5 -1l-74 -178q-1 -4 3 -4zM449 724q-26 0 -40.5 17.5t-14.5 38.5q0 19 15.5 37t39.5 18t39.5 -14.5t15.5 -38.5
q0 -25 -15 -41.5t-40 -16.5zM226 724q-26 0 -39.5 17t-13.5 39q0 20 14.5 36.5t39.5 16.5q23 0 38.5 -14.5t15.5 -37.5q0 -25 -15 -41t-40 -16z" />
    <glyph glyph-name="aring" unicode="&#xe5;" 
d="M400 162h-207q-7 0 -10 -9l-21 -51q-15 -37 -15 -53q0 -27 56 -32h5q16 -1 16 -9q0 -11 -17 -11q-21 0 -60 1.5t-65 1.5q-1 0 -43 -1.5t-68 -1.5q-18 0 -18 10t16 10q34 4 53.5 19t38.5 57l240 512q27 59 42 59q7 0 14 -10t21 -37l237 -506q24 -50 40 -69t41 -23
q16 -2 20 -2q17 0 17 -10t-18 -10q-208 2 -258 3q-18 0 -18 9q0 6 12 10q13 5 13 8q1 3 -1 7l-55 123q-2 5 -8 5zM221 241h150q7 0 5 4l-79 179q-2 4 -5 -1l-74 -178q-1 -4 3 -4zM309 698q-38 0 -61.5 18t-23.5 45q0 40 38.5 66.5t98.5 26.5q44 0 67.5 -17.5t23.5 -44.5
q-1 -43 -44 -68.5t-99 -25.5zM288 779q0 -23 17 -38t36 -15q23 0 36 14.5t13 36.5q0 19 -15 34t-40 15q-19 0 -33 -11.5t-14 -35.5z" />
    <glyph glyph-name="ae" unicode="&#xe6;" horiz-adv-x="941" 
d="M354 351h92q8 0 8 7v127q0 26 1 44q-4 -3 -53 -81t-53 -87q-5 -10 5 -10zM446 288h-130q-9 0 -15 -6l-93 -152q-38 -60 -38 -81q0 -14 13 -21t45 -10q23 -2 23 -10q0 -11 -20 -11q-32 0 -66 1t-54.5 1.5t-28.5 0.5q-14 0 -55 -1.5t-48 -1.5q-24 0 -24 9t20 11
q34 4 60.5 25t60.5 69q281 410 328 485q29 46 33 50q6 6 20 5q32 -2 88 -2q8 0 112 0.5t111 0.5q38 0 51 4q9 3 15 3q5 0 5 -8q0 -2 -1 -8t-2.5 -16t-2.5 -19q-4 -55 -5 -89q0 -17 -10 -17q-8 0 -10 13q-2 20 -5 33q-5 16 -15.5 22.5t-41.5 9.5q-66 4 -136 4q-8 0 -8 -9
v-211q0 -11 8 -11q39 -1 126 1q59 2 68 19q7 14 14 14t7 -11q0 -4 -3.5 -31t-4.5 -45q-1 -20 -1 -72q0 -19 -8 -19q-10 0 -10 15q-1 3 -1.5 8t-0.5 8q-3 22 -16 33.5t-45 12.5q-56 4 -128 4q-5 0 -5 -12v-58v-81q1 -47 20 -59.5t94 -12.5q55 0 83 10q20 8 30 22.5t16 46.5
q3 17 10 17q8 0 8 -23q0 -60 -14 -120q-5 -16 -13.5 -19.5t-35.5 -3.5q-72 0 -160 2.5t-130 2.5q-21 0 -65.5 -1.5t-71.5 -1.5q-20 0 -20 9t15 11q28 3 33 4q17 4 22 24.5t8 73.5q0 14 1.5 52t1.5 66v41q0 10 -8 10z" />
    <glyph glyph-name="ccedilla" unicode="&#xe7;" horiz-adv-x="752" 
d="M348 -69l81 56q-160 12 -263 93q-114 94 -114 255q0 57 26 124.5t87 116.5q109 88 299 88q60 0 128 -10q66 -11 87 -11q10 -1 10 -12q0 -3 -4 -61q-3 -95 -4 -104q-2 -21 -12 -21q-9 0 -11 19q-3 54 -33 86q-51 54 -179 54q-78 0 -124 -39q-78 -62 -78 -214
q0 -131 66.5 -213t179.5 -82q58 0 91 8.5t58 34.5q20 22 29 63q5 21 14 21t9 -15q0 -21 -19 -135q-4 -22 -24 -29q-48 -19 -153 -19h-19q-45 -31 -63 -45q126 -12 126 -83q0 -15 -8 -30t-28 -31.5t-62 -26.5t-100 -10q-19 0 -19 10q0 7 22 10q91 15 91 73q0 56 -85 57
q-15 2 -15 8q0 3 13 14z" />
    <glyph glyph-name="egrave" unicode="&#xe8;" horiz-adv-x="628" 
d="M140 249v152q0 146 -3 188q-3 35 -32 40l-27 3q-15 1 -15 11q0 9 19 9q29 0 73 -1.5t61 -1.5q8 0 130.5 0.5t129.5 0.5q31 0 51 4q9 3 14 3q8 0 6 -9q-6 -34 -7 -42q-1 -22 -5 -94q0 -14 -10 -14q-9 0 -10 12q-1 3 -2 13.5t-3 18.5q-4 16 -16.5 24.5t-42.5 11.5
q-66 4 -134 4q-7 0 -7 -9v-183q0 -8 7 -8q89 0 124 1q37 2 50.5 5.5t21.5 16.5q5 11 12 11t7 -11q0 -3 -3 -32.5t-4 -47.5q-2 -38 -2 -75q0 -15 -9 -15t-10 14q-1 3 -1.5 8.5t-0.5 8.5q-4 22 -16.5 33t-45.5 13q-42 3 -124 3q-6 0 -6 -7v-63v-105q1 -47 20.5 -61t93.5 -14
q55 0 83 10q18 7 27.5 23.5t15.5 47.5q3 15 12 15q8 0 8 -18q0 -70 -13 -125q-5 -16 -13 -19.5t-34 -3.5q-72 0 -161 2.5t-132 2.5q-20 0 -64.5 -1.5t-71.5 -1.5q-21 0 -21 11q0 9 18 9q25 3 26 3q20 3 26 25t9 75q0 15 0.5 59t0.5 70zM378 720q1 -4 -2 -7t-9 -3
q-20 1 -94 36t-127 68q-14 8 -21.5 15t-6.5 12q-1 5 12 13q25 16 72 31q15 5 20 5t18 -19q16 -26 122 -129q17 -17 16 -22z" />
    <glyph glyph-name="eacute" unicode="&#xe9;" horiz-adv-x="628" 
d="M140 249v152q0 146 -3 188q-3 35 -32 40l-27 3q-15 1 -15 11q0 9 19 9q29 0 73 -1.5t61 -1.5q8 0 130.5 0.5t129.5 0.5q31 0 51 4q9 3 14 3q8 0 6 -9q-6 -34 -7 -42q-1 -22 -5 -94q0 -14 -10 -14q-9 0 -10 12q-1 3 -2 13.5t-3 18.5q-4 16 -16.5 24.5t-42.5 11.5
q-66 4 -134 4q-7 0 -7 -9v-183q0 -8 7 -8q89 0 124 1q37 2 50.5 5.5t21.5 16.5q5 11 12 11t7 -11q0 -3 -3 -32.5t-4 -47.5q-2 -38 -2 -75q0 -15 -9 -15t-10 14q-1 3 -1.5 8.5t-0.5 8.5q-4 22 -16.5 33t-45.5 13q-42 3 -124 3q-6 0 -6 -7v-63v-105q1 -47 20.5 -61t93.5 -14
q55 0 83 10q18 7 27.5 23.5t15.5 47.5q3 15 12 15q8 0 8 -18q0 -70 -13 -125q-5 -16 -13 -19.5t-34 -3.5q-72 0 -161 2.5t-132 2.5q-20 0 -64.5 -1.5t-71.5 -1.5q-21 0 -21 11q0 9 18 9q25 3 26 3q20 3 26 25t9 75q0 15 0.5 59t0.5 70zM454 873q34 -37 47 -71q5 -17 -5 -17
q-13 2 -58 -12q-89 -29 -148 -58q-14 -7 -22 -9q-9 2 -9 7q0 6 10 18q26 32 69 75.5t63 59.5q21 17 32 17q7 1 21 -10z" />
    <glyph glyph-name="ecircumflex" unicode="&#xea;" horiz-adv-x="628" 
d="M140 249v152q0 146 -3 188q-3 35 -32 40l-27 3q-15 1 -15 11q0 9 19 9q29 0 73 -1.5t61 -1.5q8 0 130.5 0.5t129.5 0.5q31 0 51 4q9 3 14 3q8 0 6 -9q-6 -34 -7 -42q-1 -22 -5 -94q0 -14 -10 -14q-9 0 -10 12q-1 3 -2 13.5t-3 18.5q-4 16 -16.5 24.5t-42.5 11.5
q-66 4 -134 4q-7 0 -7 -9v-183q0 -8 7 -8q89 0 124 1q37 2 50.5 5.5t21.5 16.5q5 11 12 11t7 -11q0 -3 -3 -32.5t-4 -47.5q-2 -38 -2 -75q0 -15 -9 -15t-10 14q-1 3 -1.5 8.5t-0.5 8.5q-4 22 -16.5 33t-45.5 13q-42 3 -124 3q-6 0 -6 -7v-63v-105q1 -47 20.5 -61t93.5 -14
q55 0 83 10q18 7 27.5 23.5t15.5 47.5q3 15 12 15q8 0 8 -18q0 -70 -13 -125q-5 -16 -13 -19.5t-34 -3.5q-72 0 -161 2.5t-132 2.5q-20 0 -64.5 -1.5t-71.5 -1.5q-21 0 -21 11q0 9 18 9q25 3 26 3q20 3 26 25t9 75q0 15 0.5 59t0.5 70zM330 874q7 0 23 -11l123 -82
q18 -13 18 -19q0 -5 -6 -11l-51 -34q-9 -6 -18 3q-33 29 -95 67q-13 9 -19 9t-20 -7q-52 -24 -120 -64q-16 -10 -25 -10q-10 0 -4 11q2 5 9 11q6 5 79 60.5t82 63.5q16 13 24 13z" />
    <glyph glyph-name="edieresis" unicode="&#xeb;" horiz-adv-x="628" 
d="M140 249v152q0 146 -3 188q-3 35 -32 40l-27 3q-15 1 -15 11q0 9 19 9q29 0 73 -1.5t61 -1.5q8 0 130.5 0.5t129.5 0.5q31 0 51 4q9 3 14 3q8 0 6 -9q-6 -34 -7 -42q-1 -22 -5 -94q0 -14 -10 -14q-9 0 -10 12q-1 3 -2 13.5t-3 18.5q-4 16 -16.5 24.5t-42.5 11.5
q-66 4 -134 4q-7 0 -7 -9v-183q0 -8 7 -8q89 0 124 1q37 2 50.5 5.5t21.5 16.5q5 11 12 11t7 -11q0 -3 -3 -32.5t-4 -47.5q-2 -38 -2 -75q0 -15 -9 -15t-10 14q-1 3 -1.5 8.5t-0.5 8.5q-4 22 -16.5 33t-45.5 13q-42 3 -124 3q-6 0 -6 -7v-63v-105q1 -47 20.5 -61t93.5 -14
q55 0 83 10q18 7 27.5 23.5t15.5 47.5q3 15 12 15q8 0 8 -18q0 -70 -13 -125q-5 -16 -13 -19.5t-34 -3.5q-72 0 -161 2.5t-132 2.5q-20 0 -64.5 -1.5t-71.5 -1.5q-21 0 -21 11q0 9 18 9q25 3 26 3q20 3 26 25t9 75q0 15 0.5 59t0.5 70zM429 736q-26 0 -40.5 17.5t-14.5 38.5
q0 19 15.5 36.5t39.5 17.5t39.5 -14.5t15.5 -37.5q0 -25 -15 -41.5t-40 -16.5zM206 736q-26 0 -39.5 17t-13.5 39q0 20 14.5 36.5t39.5 16.5q24 0 39.5 -14.5t15.5 -37.5q0 -25 -15.5 -41t-40.5 -16z" />
    <glyph glyph-name="igrave" unicode="&#xec;" horiz-adv-x="449" 
d="M140 249v152q0 158 -3 185q-3 38 -30 42q-7 2 -28 4q-17 1 -17 10q0 10 20 10q15 0 48 -1t60 -1l26 -1q1 0 32.5 0.5t68 1.5t51.5 1q18 0 18 -10q0 -8 -18 -10q-11 -1 -20 -3q-18 -4 -25.5 -13t-10.5 -31q-3 -28 -3 -184v-152q0 -139 5 -185q3 -36 35 -43q2 -1 37 -4
q19 0 19 -11q0 -9 -19 -9q-27 0 -68.5 0.5t-71.5 1.5l-30 1l-28 -1q-28 -1 -61 -1.5t-45 -0.5q-21 0 -21 10t15 10q2 0 12 1t17 2q26 5 29 47q6 43 6 182zM264 721q1 -3 -2 -6t-9 -3q-20 0 -93.5 35t-127.5 68q-29 19 -28 28q-1 4 12 12q25 16 72 31q15 5 20 5q7 0 18 -19
q16 -26 122 -129q17 -17 16 -22z" />
    <glyph glyph-name="iacute" unicode="&#xed;" horiz-adv-x="449" 
d="M140 249v152q0 158 -3 185q-3 38 -30 42q-7 2 -28 4q-17 1 -17 10q0 10 20 10q15 0 48 -1t60 -1l26 -1q1 0 32.5 0.5t68 1.5t51.5 1q18 0 18 -10q0 -8 -18 -10q-11 -1 -20 -3q-18 -4 -25.5 -13t-10.5 -31q-3 -28 -3 -184v-152q0 -139 5 -185q3 -36 35 -43q2 -1 37 -4
q19 0 19 -11q0 -9 -19 -9q-27 0 -68.5 0.5t-71.5 1.5l-30 1l-28 -1q-28 -1 -61 -1.5t-45 -0.5q-21 0 -21 10t15 10q2 0 12 1t17 2q26 5 29 47q6 43 6 182zM370 874q33 -33 47 -71q5 -16 -5 -16q-21 0 -57 -13q-85 -26 -148 -58q-15 -7 -23 -9q-9 2 -9 7q0 6 10 18
q26 33 69.5 76.5t63.5 58.5q19 18 32 18q6 1 20 -11z" />
    <glyph glyph-name="icircumflex" unicode="&#xee;" horiz-adv-x="449" 
d="M140 249v152q0 158 -3 185q-3 38 -30 42q-7 2 -28 4q-17 1 -17 10q0 10 20 10q15 0 48 -1t60 -1l26 -1q1 0 32.5 0.5t68 1.5t51.5 1q18 0 18 -10q0 -8 -18 -10q-11 -1 -20 -3q-18 -4 -25.5 -13t-10.5 -31q-3 -28 -3 -184v-152q0 -139 5 -185q3 -36 35 -43q2 -1 37 -4
q19 0 19 -11q0 -9 -19 -9q-27 0 -68.5 0.5t-71.5 1.5l-30 1l-28 -1q-28 -1 -61 -1.5t-45 -0.5q-21 0 -21 10t15 10q2 0 12 1t17 2q26 5 29 47q6 43 6 182zM241 874q7 0 23 -11l123 -82q19 -14 19 -19t-7 -11l-51 -34q-8 -7 -18 3q-33 29 -95 67q-13 9 -19 9t-20 -7
q-52 -24 -120 -64q-16 -10 -24 -10q-11 0 -5 11q2 5 9 11q3 2 77 58.5t84 65.5q16 13 24 13z" />
    <glyph glyph-name="idieresis" unicode="&#xef;" horiz-adv-x="449" 
d="M140 249v152q0 158 -3 185q-3 38 -30 42q-7 2 -28 4q-17 1 -17 10q0 10 20 10q15 0 48 -1t60 -1l26 -1q1 0 32.5 0.5t68 1.5t51.5 1q18 0 18 -10q0 -8 -18 -10q-11 -1 -20 -3q-18 -4 -25.5 -13t-10.5 -31q-3 -28 -3 -184v-152q0 -139 5 -185q3 -36 35 -43q2 -1 37 -4
q19 0 19 -11q0 -9 -19 -9q-27 0 -68.5 0.5t-71.5 1.5l-30 1l-28 -1q-28 -1 -61 -1.5t-45 -0.5q-21 0 -21 10t15 10q2 0 12 1t17 2q26 5 29 47q6 43 6 182zM333 736q-26 0 -40 17.5t-14 38.5q0 19 15.5 37t39.5 18q23 0 38.5 -15t15.5 -38q0 -25 -15 -41.5t-40 -16.5z
M110 736q-26 0 -39.5 17.5t-13.5 38.5q0 20 14.5 36.5t39.5 16.5q24 0 39.5 -14.5t15.5 -37.5q0 -25 -15.5 -41t-40.5 -16z" />
    <glyph glyph-name="eth" unicode="&#xf0;" horiz-adv-x="864" 
d="M104 629l-29 3q-15 2 -15 11t19 9q5 0 63.5 -1.5t83.5 -1.5q9 0 54.5 1t92.5 1q127 0 211.5 -23t141.5 -78q86 -84 86 -220q0 -73 -28.5 -135t-71.5 -102q-29 -28 -58.5 -47t-96 -37.5t-152.5 -18.5q-25 0 -96 5t-87 5q-21 0 -67 -1.5t-67 -1.5q-18 0 -18 10t16 10
q6 0 26 3q27 2 32.5 38t5.5 145v46v55h-84q-7 0 -8.5 2t-0.5 9l4 31q1 10 11 10h78v45q0 145 -2 173q-1 16 -3 25t-12 18.5t-29 11.5zM319 304v-1q0 -129 2 -163q2 -48 16 -63q26 -29 88 -29q49 0 84 11t67 45q55 55 55 196q0 113 -60 198q-68 96 -196 96q-36 0 -47 -8
q-6 -5 -7.5 -30t-1.5 -143v-57h161q6 0 7.5 -1.5t1.5 -8.5l-4 -32q-1 -10 -11 -10h-155z" />
    <glyph glyph-name="ntilde" unicode="&#xf1;" horiz-adv-x="848" 
d="M115 124q3 91 5 265t4 231q2 44 17 44q9 0 34 -19q85 -67 292 -250l172 -150l-5 306q-2 39 -10.5 56t-36.5 21q-13 2 -36 4q-16 1 -16 10q0 10 17 10q16 0 65 -1.5t70 -1.5q9 0 47 1.5t58 1.5q19 0 19 -9q0 -10 -15 -11q-18 -2 -20 -2q-23 -3 -32 -17.5t-11 -54.5
q-10 -209 -12 -514q0 -36 -4.5 -47.5t-14.5 -11.5q-19 0 -117 80l-176 152l-202 179l9 -281q2 -50 7 -68.5t24 -23.5t45 -6q19 -3 19 -10q0 -10 -22 -10q-11 0 -46 1l-69 2q-12 0 -62 -1.5t-66 -1.5q-20 0 -20 10q0 9 16 10q5 1 12.5 1.5t12.5 0.5q27 4 36.5 24t11.5 81z
M516 740q-27 0 -85 24t-80 24q-20 0 -36 -6.5t-23 -12.5t-20 -19q-8 -8 -13 -8q-11 0 0 18q23 42 53.5 67.5t60.5 25.5q32 0 84 -22q68 -26 87 -26q24 0 39.5 9t38.5 34q4 5 10 5q10 0 1 -17q-51 -96 -117 -96z" />
    <glyph glyph-name="ograve" unicode="&#xf2;" horiz-adv-x="862" 
d="M433 -15q-95 0 -171 30.5t-120 80.5t-67 107.5t-23 117.5q0 69 24 130t70.5 109t122 76t170.5 28q165 0 268 -95t103 -228q0 -156 -102 -256t-275 -100zM457 45q161 0 161 256q0 54 -10.5 104t-33 97t-65.5 75.5t-101 28.5q-164 0 -164 -242q0 -84 21.5 -154t71 -117.5
t120.5 -47.5zM486 724q1 -3 -2 -6t-9 -3q-20 0 -94 35t-128 69q-28 17 -27 27q-1 4 12 12q23 15 72 32q18 4 20 4q6 0 17 -19q10 -16 123 -129q17 -18 16 -22z" />
    <glyph glyph-name="oacute" unicode="&#xf3;" horiz-adv-x="862" 
d="M433 -15q-95 0 -171 30.5t-120 80.5t-67 107.5t-23 117.5q0 69 24 130t70.5 109t122 76t170.5 28q165 0 268 -95t103 -228q0 -156 -102 -256t-275 -100zM457 45q161 0 161 256q0 54 -10.5 104t-33 97t-65.5 75.5t-101 28.5q-164 0 -164 -242q0 -84 21.5 -154t71 -117.5
t120.5 -47.5zM548 889q33 -33 47 -71q5 -17 -5 -17q-17 2 -57 -12q-85 -26 -148 -58q-15 -7 -23 -9q-9 2 -9 7q0 6 10 18q27 33 70.5 76.5t62.5 58.5q19 18 32 18q8 0 20 -11z" />
    <glyph glyph-name="ocircumflex" unicode="&#xf4;" horiz-adv-x="862" 
d="M433 -15q-95 0 -171 30.5t-120 80.5t-67 107.5t-23 117.5q0 69 24 130t70.5 109t122 76t170.5 28q165 0 268 -95t103 -228q0 -156 -102 -256t-275 -100zM457 45q161 0 161 256q0 54 -10.5 104t-33 97t-65.5 75.5t-101 28.5q-164 0 -164 -242q0 -84 21.5 -154t71 -117.5
t120.5 -47.5zM439 879q5 0 23 -11l123 -83q19 -13 19 -19q0 -5 -7 -10l-50 -34q-10 -6 -18 2q-38 32 -96 68q-11 8 -19 8q-5 0 -20 -7q-49 -21 -119 -64q-19 -10 -25 -10q-10 0 -6 10q3 6 11 12q7 6 79.5 62l80.5 62q17 14 24 14z" />
    <glyph glyph-name="otilde" unicode="&#xf5;" horiz-adv-x="862" 
d="M433 -15q-95 0 -171 30.5t-120 80.5t-67 107.5t-23 117.5q0 69 24 130t70.5 109t122 76t170.5 28q165 0 268 -95t103 -228q0 -156 -102 -256t-275 -100zM457 45q161 0 161 256q0 54 -10.5 104t-33 97t-65.5 75.5t-101 28.5q-164 0 -164 -242q0 -84 21.5 -154t71 -117.5
t120.5 -47.5zM498 736q-26 0 -84 24.5t-80 24.5q-20 0 -36 -6.5t-23.5 -12.5t-20.5 -19q-7 -8 -13 -8q-11 0 0 18q24 42 54.5 67t59.5 25q32 0 85 -21q67 -27 87 -27q24 0 39 9.5t39 34.5q4 5 10 5q9 0 1 -17q-54 -97 -118 -97z" />
    <glyph glyph-name="odieresis" unicode="&#xf6;" horiz-adv-x="862" 
d="M433 -15q-95 0 -171 30.5t-120 80.5t-67 107.5t-23 117.5q0 69 24 130t70.5 109t122 76t170.5 28q165 0 268 -95t103 -228q0 -156 -102 -256t-275 -100zM457 45q161 0 161 256q0 54 -10.5 104t-33 97t-65.5 75.5t-101 28.5q-164 0 -164 -242q0 -84 21.5 -154t71 -117.5
t120.5 -47.5zM539 738q-26 0 -40.5 17.5t-14.5 38.5q0 19 15.5 36.5t39.5 17.5t39.5 -14.5t15.5 -37.5q0 -25 -15 -41.5t-40 -16.5zM316 738q-26 0 -39.5 17t-13.5 39q0 20 14.5 36.5t39.5 16.5q23 0 38.5 -14.5t15.5 -37.5q0 -25 -15 -41t-40 -16z" />
    <glyph glyph-name="divide" unicode="&#xf7;" horiz-adv-x="693" 
d="M345 477q-31 -1 -50 18t-19 49q0 32 18.5 51t48.5 19q32 0 52.5 -18.5t20.5 -48.5q1 -31 -19 -50.5t-52 -19.5zM343 245q32 0 52.5 -19t20.5 -49q1 -30 -19.5 -50.5t-53.5 -20.5q-29 0 -48 19.5t-19 49.5q0 32 18.5 51t48.5 19zM600 312h-508v98h508v-98z" />
    <glyph glyph-name="oslash" unicode="&#xf8;" horiz-adv-x="862" 
d="M742 646l-54 -61q58 -46 90 -109.5t32 -134.5q0 -156 -102 -256t-275 -100q-130 0 -224 57l-69 -78q-7 -3 -10 0l-26 23q-7 5 2 14l62 71q-57 48 -86.5 114.5t-29.5 134.5q0 69 24 130t70.5 109t122 76t170.5 28q118 0 207 -51l58 65q5 6 13 -2l25 -23q3 -4 0 -7z
M273 190l291 330q-56 86 -156 86q-164 0 -164 -242q0 -99 29 -174zM588 472l-291 -331q56 -96 160 -96q161 0 161 256q0 97 -30 171z" />
    <glyph glyph-name="ugrave" unicode="&#xf9;" horiz-adv-x="793" 
d="M284 401v-131q0 -89 14.5 -132.5t54.5 -68.5q37 -21 82 -21q57 0 92 28q25 19 37 60.5t13 70.5t1 92v102q0 146 -2 174q-2 26 -9.5 37.5t-28.5 15.5q-9 2 -33 4q-16 1 -16 11q0 9 20 9q31 0 75.5 -1.5t49.5 -1.5q4 0 49 1.5t72 1.5q19 0 19 -10q0 -8 -15 -10
q-22 -2 -28 -4q-18 -3 -24.5 -14t-8.5 -39q-3 -42 -3 -174v-83q0 -47 -2.5 -77.5t-10.5 -70t-28.5 -71.5t-52.5 -57q-73 -57 -186 -57q-146 0 -217 58q-84 65 -84 226v132q0 157 -2 185q-3 34 -27 40q-3 1 -39 6q-16 2 -16 11t22 9q16 0 49.5 -1t60.5 -1l28 -1q1 0 33 0.5
t69.5 1.5t51.5 1q22 0 22 -9t-15 -11l-32 -4q-30 -6 -33 -51q-2 -28 -2 -176zM472 721q1 -3 -2 -6t-9 -3q-20 0 -93.5 34.5t-128.5 68.5q-28 19 -27 28q-1 4 12 12q27 17 72 31q13 5 20 5q6 0 17 -19q12 -19 122 -129q18 -18 17 -22z" />
    <glyph glyph-name="uacute" unicode="&#xfa;" horiz-adv-x="793" 
d="M284 401v-131q0 -89 14.5 -132.5t54.5 -68.5q37 -21 82 -21q57 0 92 28q25 19 37 60.5t13 70.5t1 92v102q0 146 -2 174q-2 26 -9.5 37.5t-28.5 15.5q-9 2 -33 4q-16 1 -16 11q0 9 20 9q31 0 75.5 -1.5t49.5 -1.5q4 0 49 1.5t72 1.5q19 0 19 -10q0 -8 -15 -10
q-22 -2 -28 -4q-18 -3 -24.5 -14t-8.5 -39q-3 -42 -3 -174v-83q0 -47 -2.5 -77.5t-10.5 -70t-28.5 -71.5t-52.5 -57q-73 -57 -186 -57q-146 0 -217 58q-84 65 -84 226v132q0 157 -2 185q-3 34 -27 40q-3 1 -39 6q-16 2 -16 11t22 9q16 0 49.5 -1t60.5 -1l28 -1q1 0 33 0.5
t69.5 1.5t51.5 1q22 0 22 -9t-15 -11l-32 -4q-30 -6 -33 -51q-2 -28 -2 -176zM550 881q33 -33 47 -71q5 -17 -5 -17q-17 2 -57 -12q-85 -26 -148 -58q-15 -7 -23 -9q-9 2 -9 7q0 6 10 18q27 33 70.5 76.5t62.5 58.5q19 18 32 18q8 0 20 -11z" />
    <glyph glyph-name="ucircumflex" unicode="&#xfb;" horiz-adv-x="793" 
d="M284 401v-131q0 -89 14.5 -132.5t54.5 -68.5q37 -21 82 -21q57 0 92 28q25 19 37 60.5t13 70.5t1 92v102q0 146 -2 174q-2 26 -9.5 37.5t-28.5 15.5q-9 2 -33 4q-16 1 -16 11q0 9 20 9q31 0 75.5 -1.5t49.5 -1.5q4 0 49 1.5t72 1.5q19 0 19 -10q0 -8 -15 -10
q-22 -2 -28 -4q-18 -3 -24.5 -14t-8.5 -39q-3 -42 -3 -174v-83q0 -47 -2.5 -77.5t-10.5 -70t-28.5 -71.5t-52.5 -57q-73 -57 -186 -57q-146 0 -217 58q-84 65 -84 226v132q0 157 -2 185q-3 34 -27 40q-3 1 -39 6q-16 2 -16 11t22 9q16 0 49.5 -1t60.5 -1l28 -1q1 0 33 0.5
t69.5 1.5t51.5 1q22 0 22 -9t-15 -11l-32 -4q-30 -6 -33 -51q-2 -28 -2 -176zM430 874q7 0 23 -11l123 -82q18 -13 18 -19q0 -5 -6 -11l-51 -34q-9 -6 -18 3q-33 29 -95 67q-13 9 -19 9t-20 -7q-52 -24 -120 -64q-16 -10 -25 -10q-10 0 -4 11q2 5 9 11q6 5 79 60.5t82 63.5
q16 13 24 13z" />
    <glyph glyph-name="udieresis" unicode="&#xfc;" horiz-adv-x="793" 
d="M284 401v-131q0 -89 14.5 -132.5t54.5 -68.5q37 -21 82 -21q57 0 92 28q25 19 37 60.5t13 70.5t1 92v102q0 146 -2 174q-2 26 -9.5 37.5t-28.5 15.5q-9 2 -33 4q-16 1 -16 11q0 9 20 9q31 0 75.5 -1.5t49.5 -1.5q4 0 49 1.5t72 1.5q19 0 19 -10q0 -8 -15 -10
q-22 -2 -28 -4q-18 -3 -24.5 -14t-8.5 -39q-3 -42 -3 -174v-83q0 -47 -2.5 -77.5t-10.5 -70t-28.5 -71.5t-52.5 -57q-73 -57 -186 -57q-146 0 -217 58q-84 65 -84 226v132q0 157 -2 185q-3 34 -27 40q-3 1 -39 6q-16 2 -16 11t22 9q16 0 49.5 -1t60.5 -1l28 -1q1 0 33 0.5
t69.5 1.5t51.5 1q22 0 22 -9t-15 -11l-32 -4q-30 -6 -33 -51q-2 -28 -2 -176zM527 738q-26 0 -40.5 17.5t-14.5 38.5q0 19 15.5 36.5t39.5 17.5t39.5 -14.5t15.5 -37.5q0 -25 -15 -41.5t-40 -16.5zM304 738q-26 0 -39.5 17t-13.5 39q0 20 14.5 36.5t39.5 16.5
q24 0 39.5 -14.5t15.5 -37.5q0 -25 -15.5 -41t-40.5 -16z" />
    <glyph glyph-name="yacute" unicode="&#xfd;" horiz-adv-x="644" 
d="M238 155v67q0 22 -4 39.5t-7.5 24.5l-14.5 28q-90 159 -151 245q-27 41 -40 52t-36 16q-5 2 -19 4q-13 3 -13 11q0 10 18 10q22 0 74.5 -1.5t69.5 -1.5q1 0 51.5 1.5t85.5 1.5q17 0 17 -9q0 -8 -16 -12q-33 -4 -33 -17q0 -8 9 -24l137 -238q86 152 116 216q15 32 15 40
q0 9 -7 14.5t-28 8.5q-14 2 -14 11q0 10 20 10q19 0 53.5 -1.5t52.5 -1.5q5 0 50.5 1.5t54.5 1.5q17 0 17 -8q0 -11 -17 -12t-34 -6q-18 -7 -27.5 -15.5t-24.5 -27.5q-23 -26 -92.5 -143t-78.5 -144q-14 -40 -14 -80v-61q0 -44 2 -81q1 -15 2.5 -22t10 -17t24.5 -13
q11 -3 51 -5q15 0 15 -10t-16 -10q-37 0 -102.5 1.5t-76.5 1.5t-66.5 -1.5t-78.5 -1.5q-18 0 -18 11q0 9 17 9q21 1 31 4q30 8 32 47q3 37 3 87zM498 879q34 -37 47 -71q5 -17 -5 -17q-17 2 -58 -12q-81 -25 -148 -58q-15 -7 -23 -9q-8 2 -8 7t9 18q28 34 71 77.5t62 57.5
q21 18 32 18q8 0 21 -11z" />
    <glyph glyph-name="thorn" unicode="&#xfe;" horiz-adv-x="693" 
d="M309 249q0 -130 5 -185q2 -22 9.5 -31t27.5 -14q12 -3 37 -3q18 -2 18 -10q0 -9 -20 -9q-27 0 -68.5 0.5t-71.5 1.5l-30 1q-1 0 -58.5 -1.5t-75.5 -1.5q-23 0 -23 9q0 8 19 10q19 0 28 2q25 6 28 47q6 44 6 184v152q0 160 -3 188q-3 38 -30 42q-6 1 -16.5 2t-12.5 1
q-16 3 -16 10q0 8 19 8q15 0 48 -1t60 -1l27 -1q1 0 33 0.5t69 1.5t51 1q22 0 22 -8q0 -6 -23 -11q-12 -3 -23 -4q-17 -4 -24 -14t-10 -33q0 -11 -0.5 -22.5t-1 -18t-0.5 -9.5h75q147 0 209 -55q48 -43 48 -112q0 -99 -80 -154t-180 -55q-17 0 -29 4q-10 2 -10 7q0 10 21 10
q56 0 83.5 40t27.5 99q0 86 -38 128q-34 37 -95 37q-10 0 -18 -2q-14 -3 -14 -23v-207z" />
    <glyph glyph-name="ydieresis" unicode="&#xff;" horiz-adv-x="644" 
d="M238 155v67q0 22 -4 39.5t-7.5 24.5l-14.5 28q-90 159 -151 245q-27 41 -40 52t-36 16q-5 2 -19 4q-13 3 -13 11q0 10 18 10q22 0 74.5 -1.5t69.5 -1.5q1 0 51.5 1.5t85.5 1.5q17 0 17 -9q0 -8 -16 -12q-33 -4 -33 -17q0 -8 9 -24l137 -238q86 152 116 216q15 32 15 40
q0 9 -7 14.5t-28 8.5q-14 2 -14 11q0 10 20 10q19 0 53.5 -1.5t52.5 -1.5q5 0 50.5 1.5t54.5 1.5q17 0 17 -8q0 -11 -17 -12t-34 -6q-18 -7 -27.5 -15.5t-24.5 -27.5q-23 -26 -92.5 -143t-78.5 -144q-14 -40 -14 -80v-61q0 -44 2 -81q1 -15 2.5 -22t10 -17t24.5 -13
q11 -3 51 -5q15 0 15 -10t-16 -10q-37 0 -102.5 1.5t-76.5 1.5t-66.5 -1.5t-78.5 -1.5q-18 0 -18 11q0 9 17 9q21 1 31 4q30 8 32 47q3 37 3 87zM449 732q-26 0 -40.5 17.5t-14.5 38.5q0 19 15.5 37t39.5 18t39.5 -14.5t15.5 -38.5q0 -25 -15 -41.5t-40 -16.5zM226 732
q-26 0 -39.5 17t-13.5 39q0 20 14.5 36.5t39.5 16.5q24 0 39.5 -14.5t15.5 -37.5q0 -24 -15.5 -40.5t-40.5 -16.5z" />
    <glyph glyph-name="Amacron" unicode="&#x100;" horiz-adv-x="744" 
d="M439 204h-229q-6 0 -9 -7l-31 -82q-16 -42 -16 -64q0 -27 30 -30q7 -1 20.5 -2.5t14.5 -1.5q18 0 18 -10t-21 -10q-22 0 -63 1.5t-69 1.5q-1 0 -49 -1.5t-78 -1.5q-20 0 -20 10t19 10q21 2 32 4q25 5 42 25.5t34 60.5l267 604q26 58 41 58q12 0 36 -50l262 -591
q25 -58 44.5 -80.5t46.5 -26.5q3 -1 32 -4q19 0 19 -10t-26 -10q-84 0 -276 3q-22 0 -22 9t14 12q17 3 12 18l-67 159q-1 6 -8 6zM239 284h171q8 0 5 5l-88 214q-4 8 -7 0l-85 -214q-2 -5 4 -5zM521 844h-318q-5 0 -5 8q4 36 11 52q3 6 10 6h320q7 0 7 -8q-4 -36 -11 -50
q-4 -8 -14 -8z" />
    <glyph glyph-name="amacron" unicode="&#x101;" 
d="M400 162h-207q-7 0 -10 -9l-21 -51q-15 -37 -15 -53q0 -27 56 -32h5q16 -1 16 -9q0 -11 -17 -11q-21 0 -60 1.5t-65 1.5q-1 0 -43 -1.5t-68 -1.5q-18 0 -18 10t16 10q34 4 53.5 19t38.5 57l240 512q27 59 42 59q7 0 14 -10t21 -37l237 -506q24 -50 40 -69t41 -23
q16 -2 20 -2q17 0 17 -10t-18 -10q-208 2 -258 3q-18 0 -18 9q0 6 12 10q13 5 13 8q1 3 -1 7l-55 123q-2 5 -8 5zM221 241h150q7 0 5 4l-79 179q-2 4 -5 -1l-74 -178q-1 -4 3 -4zM483 737h-298q-5 0 -5 8q4 35 11 49q3 7 9 7h301q7 0 7 -8q-4 -33 -11 -48q-4 -8 -14 -8z" />
    <glyph glyph-name="Abreve" unicode="&#x102;" horiz-adv-x="744" 
d="M439 204h-229q-6 0 -9 -7l-31 -82q-16 -42 -16 -64q0 -27 30 -30q7 -1 20.5 -2.5t14.5 -1.5q18 0 18 -10t-21 -10q-22 0 -63 1.5t-69 1.5q-1 0 -49 -1.5t-78 -1.5q-20 0 -20 10t19 10q21 2 32 4q25 5 42 25.5t34 60.5l267 604q26 58 41 58q12 0 36 -50l262 -591
q25 -58 44.5 -80.5t46.5 -26.5q3 -1 32 -4q19 0 19 -10t-26 -10q-84 0 -276 3q-22 0 -22 9t14 12q17 3 12 18l-67 159q-1 6 -8 6zM239 284h171q8 0 5 5l-88 214q-4 8 -7 0l-85 -214q-2 -5 4 -5zM171 915q0 11 10 16q11 12 28.5 21.5t24.5 9.5t9 -6q12 -32 51 -54t97 -22
q104 0 163 71q10 11 16 11q11 0 1 -19q-2 -5 -6 -10q-34 -53 -92 -80.5t-120 -27.5q-95 0 -148 38q-34 27 -34 52z" />
    <glyph glyph-name="abreve" unicode="&#x103;" 
d="M400 162h-207q-7 0 -10 -9l-21 -51q-15 -37 -15 -53q0 -27 56 -32h5q16 -1 16 -9q0 -11 -17 -11q-21 0 -60 1.5t-65 1.5q-1 0 -43 -1.5t-68 -1.5q-18 0 -18 10t16 10q34 4 53.5 19t38.5 57l240 512q27 59 42 59q7 0 14 -10t21 -37l237 -506q24 -50 40 -69t41 -23
q16 -2 20 -2q17 0 17 -10t-18 -10q-208 2 -258 3q-18 0 -18 9q0 6 12 10q13 5 13 8q1 3 -1 7l-55 123q-2 5 -8 5zM221 241h150q7 0 5 4l-79 179q-2 4 -5 -1l-74 -178q-1 -4 3 -4zM155 820q0 8 10 16q11 11 27 20t23 9q6 0 8 -6q12 -31 49 -52.5t92 -21.5q52 0 86 16t63 51
q9 9 15 9q10 0 0 -19q-2 -4 -5 -8q-33 -48 -86 -73.5t-110 -25.5q-88 0 -139 36q-33 25 -33 49z" />
    <glyph glyph-name="Aogonek" unicode="&#x104;" horiz-adv-x="744" 
d="M64 107l267 604q26 58 41 58q12 0 36 -50l262 -591q25 -58 44.5 -80.5t46.5 -26.5q3 -1 32 -4q19 0 19 -10t-26 -10q-66 0 -99 1q-33 -22 -49.5 -55t-16.5 -57q0 -61 64 -61q28 0 57 18q4 3 9 2.5t5 -3.5q0 -10 -9 -19q-14 -16 -47.5 -33t-76.5 -17q-47 0 -73.5 23
t-26.5 63q0 32 33 68.5t98 70.5q-25 0 -75 0.5t-69 1.5q-22 0 -22 9t14 12q17 3 12 18l-67 159q-1 6 -8 6h-229q-6 0 -9 -7l-31 -82q-16 -42 -16 -64q0 -27 30 -30q7 -1 20.5 -2.5t14.5 -1.5q18 0 18 -10t-21 -10q-22 0 -63 1.5t-69 1.5q-1 0 -49 -1.5t-78 -1.5
q-20 0 -20 10t19 10q21 2 32 4q25 5 42 25.5t34 60.5zM239 284h171q8 0 5 5l-88 214q-4 8 -7 0l-85 -214q-2 -5 4 -5z" />
    <glyph glyph-name="aogonek" unicode="&#x105;" 
d="M61 93l240 512q27 59 42 59q7 0 14 -10t21 -37l237 -506q24 -50 40 -69t41 -23q16 -2 20 -2q17 0 17 -10t-18 -10q-14 0 -42 0.5t-41 0.5q-33 -22 -49 -53.5t-16 -55.5q0 -64 65 -64q29 0 56 18q4 2 8.5 2t4.5 -4q0 -10 -9 -19q-12 -15 -46 -32t-77 -17q-47 0 -75 23
t-28 62q0 32 34 69.5t99 70.5q-24 0 -74 0.5t-68 1.5q-18 0 -18 9q0 6 12 10q13 5 13 8q1 3 -1 7l-55 123q-2 5 -8 5h-207q-7 0 -10 -9l-21 -51q-15 -37 -15 -53q0 -27 56 -32h5q16 -1 16 -9q0 -11 -17 -11q-21 0 -60 1.5t-65 1.5q-1 0 -43 -1.5t-68 -1.5q-18 0 -18 10
t16 10q34 4 53.5 19t38.5 57zM221 241h150q7 0 5 4l-79 179q-2 4 -5 -1l-74 -178q-1 -4 3 -4z" />
    <glyph glyph-name="Cacute" unicode="&#x106;" horiz-adv-x="820" 
d="M544 -17q-232 0 -363 110q-126 108 -126 294q0 66 28 143t96 134q64 54 143 78.5t188 24.5q64 0 142 -12q79 -12 99 -13q11 -1 11 -13q0 -3 -1 -12t-2 -24.5t-2 -29.5q-1 -16 -1.5 -60t-1.5 -57q-2 -24 -12 -24t-12 21q-3 59 -38 98q-60 63 -202 63q-92 0 -147 -48
q-88 -76 -88 -253q0 -155 77 -249.5t203 -94.5q68 0 106.5 10t65.5 41q21 23 33 67q7 28 16 28q8 0 8 -18q0 -46 -22 -152q-3 -21 -26 -29q-58 -23 -172 -23zM594 988q34 -34 47 -73q6 -15 -5 -15q-21 0 -58 -13q-95 -31 -150 -58q-20 -8 -23 -8q-8 0 -8 7q0 5 10 18
q27 32 70.5 76t63.5 59q23 18 33 18q8 0 20 -11z" />
    <glyph glyph-name="cacute" unicode="&#x107;" horiz-adv-x="752" 
d="M495 -15q-209 0 -329 95q-114 94 -114 255q0 57 26 124.5t87 116.5q109 88 299 88q60 0 128 -10q66 -11 87 -11q10 -1 10 -12q0 -3 -4 -61q-3 -95 -4 -104q-2 -21 -12 -21q-9 0 -11 19q-3 54 -33 86q-51 54 -179 54q-78 0 -124 -39q-78 -62 -78 -214q0 -131 66.5 -213
t179.5 -82q58 0 91 8.5t58 34.5q20 22 29 63q5 21 14 21t9 -15q0 -21 -19 -135q-4 -22 -24 -29q-48 -19 -153 -19zM550 883q32 -29 47 -71q5 -16 -5 -16q-15 2 -58 -13q-91 -29 -148 -58q-16 -8 -22 -8q-9 0 -9 6q0 8 10 18q26 32 69 75.5t64 60.5q20 17 31 17q9 1 21 -11z
" />
    <glyph glyph-name="Ccircumflex" unicode="&#x108;" horiz-adv-x="820" 
d="M544 -17q-232 0 -363 110q-126 108 -126 294q0 66 28 143t96 134q64 54 143 78.5t188 24.5q64 0 142 -12q79 -12 99 -13q11 -1 11 -13q0 -3 -1 -12t-2 -24.5t-2 -29.5q-1 -16 -1.5 -60t-1.5 -57q-2 -24 -12 -24t-12 21q-3 59 -38 98q-60 63 -202 63q-92 0 -147 -48
q-88 -76 -88 -253q0 -155 77 -249.5t203 -94.5q68 0 106.5 10t65.5 41q21 23 33 67q7 28 16 28q8 0 8 -18q0 -46 -22 -152q-3 -21 -26 -29q-58 -23 -172 -23zM484 999q7 0 23 -11l133 -90q19 -14 19 -19t-7 -11l-50 -36q-10 -6 -18 2q-37 34 -106 76q-11 8 -19 8t-20 -6
q-42 -20 -130 -73q-16 -9 -25 -9q-10 0 -5 11q3 5 10 11q1 1 44 34l81 63t46 37q16 13 24 13z" />
    <glyph glyph-name="ccircumflex" unicode="&#x109;" horiz-adv-x="752" 
d="M495 -15q-209 0 -329 95q-114 94 -114 255q0 57 26 124.5t87 116.5q109 88 299 88q60 0 128 -10q66 -11 87 -11q10 -1 10 -12q0 -3 -4 -61q-3 -95 -4 -104q-2 -21 -12 -21q-9 0 -11 19q-3 54 -33 86q-51 54 -179 54q-78 0 -124 -39q-78 -62 -78 -214q0 -131 66.5 -213
t179.5 -82q58 0 91 8.5t58 34.5q20 22 29 63q5 21 14 21t9 -15q0 -21 -19 -135q-4 -22 -24 -29q-48 -19 -153 -19zM433 879q7 0 23 -11l123 -82q19 -14 19 -19t-7 -11l-51 -34q-8 -7 -18 3q-33 29 -95 67q-13 9 -19 9t-20 -7q-52 -24 -120 -64q-16 -10 -24 -10q-11 0 -5 11
q2 5 9 11q3 2 77 58.5t84 65.5q16 13 24 13z" />
    <glyph glyph-name="Cdotaccent" unicode="&#x10a;" horiz-adv-x="820" 
d="M544 -17q-232 0 -363 110q-126 108 -126 294q0 66 28 143t96 134q64 54 143 78.5t188 24.5q64 0 142 -12q79 -12 99 -13q11 -1 11 -13q0 -3 -1 -12t-2 -24.5t-2 -29.5q-1 -16 -1.5 -60t-1.5 -57q-2 -24 -12 -24t-12 21q-3 59 -38 98q-60 63 -202 63q-92 0 -147 -48
q-88 -76 -88 -253q0 -155 77 -249.5t203 -94.5q68 0 106.5 10t65.5 41q21 23 33 67q7 28 16 28q8 0 8 -18q0 -46 -22 -152q-3 -21 -26 -29q-58 -23 -172 -23zM474 842q-28 0 -44.5 18t-16.5 42q0 25 17 44.5t44 19.5q25 0 43 -18t18 -44q0 -24 -17.5 -43t-43.5 -19z" />
    <glyph glyph-name="cdotaccent" unicode="&#x10b;" horiz-adv-x="752" 
d="M495 -15q-209 0 -329 95q-114 94 -114 255q0 57 26 124.5t87 116.5q109 88 299 88q60 0 128 -10q66 -11 87 -11q10 -1 10 -12q0 -3 -4 -61q-3 -95 -4 -104q-2 -21 -12 -21q-9 0 -11 19q-3 54 -33 86q-51 54 -179 54q-78 0 -124 -39q-78 -62 -78 -214q0 -131 66.5 -213
t179.5 -82q58 0 91 8.5t58 34.5q20 22 29 63q5 21 14 21t9 -15q0 -21 -19 -135q-4 -22 -24 -29q-48 -19 -153 -19zM430 742q-27 0 -43.5 17.5t-16.5 42.5q0 24 17 43.5t43 19.5t44 -18t18 -43q0 -24 -17.5 -43t-44.5 -19z" />
    <glyph glyph-name="Ccaron" unicode="&#x10c;" horiz-adv-x="820" 
d="M544 -17q-232 0 -363 110q-126 108 -126 294q0 66 28 143t96 134q64 54 143 78.5t188 24.5q64 0 142 -12q79 -12 99 -13q11 -1 11 -13q0 -3 -1 -12t-2 -24.5t-2 -29.5q-1 -16 -1.5 -60t-1.5 -57q-2 -24 -12 -24t-12 21q-3 59 -38 98q-60 63 -202 63q-92 0 -147 -48
q-88 -76 -88 -253q0 -155 77 -249.5t203 -94.5q68 0 106.5 10t65.5 41q21 23 33 67q7 28 16 28q8 0 8 -18q0 -46 -22 -152q-3 -21 -26 -29q-58 -23 -172 -23zM483 827q-7 0 -23 11l-133 91q-19 13 -19 19q0 3 7 10l49 33q10 7 19 -1q37 -34 106 -76q11 -9 19 -9q5 0 20 7
q32 15 130 72q16 10 25 10q10 0 3 -12q-3 -5 -9 -10q-7 -8 -87 -68t-83 -63q-15 -14 -24 -14z" />
    <glyph glyph-name="ccaron" unicode="&#x10d;" horiz-adv-x="752" 
d="M495 -15q-209 0 -329 95q-114 94 -114 255q0 57 26 124.5t87 116.5q109 88 299 88q60 0 128 -10q66 -11 87 -11q10 -1 10 -12q0 -3 -4 -61q-3 -95 -4 -104q-2 -21 -12 -21q-9 0 -11 19q-3 54 -33 86q-51 54 -179 54q-78 0 -124 -39q-78 -62 -78 -214q0 -131 66.5 -213
t179.5 -82q58 0 91 8.5t58 34.5q20 22 29 63q5 21 14 21t9 -15q0 -21 -19 -135q-4 -22 -24 -29q-48 -19 -153 -19zM429 720q-7 0 -23 10l-125 86q-19 13 -19 19q0 3 6 10l50 33q11 7 19 -1q33 -30 98 -70q13 -9 19 -9t20 7q59 28 119 64q17 10 26 10q10 0 3 -12
q-3 -5 -9 -10q-7 -8 -80 -63t-80 -61q-16 -13 -24 -13z" />
    <glyph glyph-name="Dcaron" unicode="&#x10e;" horiz-adv-x="946" 
d="M156 287v176q0 175 -2 207q-2 27 -10.5 42t-34.5 18q-3 0 -15 1t-22 2q-19 1 -19 11q0 9 23 9q10 0 73.5 -1.5t87.5 -1.5q15 0 35.5 0.5t57.5 1t69 0.5q141 -1 236.5 -26t159.5 -90q96 -96 96 -254q0 -85 -31.5 -157.5t-78.5 -116.5q-117 -119 -342 -119q-63 0 -107 4
q-68 7 -99 7q-48 0 -76 -1q-56 -2 -69 -2q-20 0 -20 10t19 10q16 1 31 4q29 4 33 61q5 80 5 205zM333 479v-128q0 -156 2 -194q3 -58 17 -72q29 -36 103 -36q115 0 182 70q65 65 65 235q0 127 -75 229q-84 109 -230 109q-40 0 -54 -8q-9 -4 -9 -18q1 -18 0 -84.5t-1 -102.5z
M453 809q-5 0 -23 11q-22 14 -133 91q-19 13 -19 19q0 4 6 10l50 33q10 7 19 -1q37 -34 106 -76q10 -8 19 -8q4 0 20 6q27 13 129 72q17 10 26 10q10 0 3 -12q-3 -5 -9 -10q-8 -8 -86.5 -67.5t-83.5 -63.5q-15 -14 -24 -14z" />
    <glyph glyph-name="dcaron" unicode="&#x10f;" horiz-adv-x="854" 
d="M140 249v152q0 145 -2 173q-1 16 -3 25t-12 18.5t-29 11.5l-29 3q-15 2 -15 11t19 9q5 0 63.5 -1.5t83.5 -1.5q9 0 54.5 1t92.5 1q127 0 211.5 -23t141.5 -78q86 -84 86 -220q0 -73 -28.5 -135t-71.5 -102q-29 -28 -58.5 -47t-96 -37.5t-152.5 -18.5q-25 0 -95.5 5
t-87.5 5q-21 0 -67 -1.5t-67 -1.5q-18 0 -18 10t16 10q6 0 26 3q27 2 32.5 38t5.5 145v46zM309 413v-110q0 -129 2 -163q2 -48 16 -63q26 -29 88 -29q49 0 84 11t67 45q55 55 55 196q0 113 -60 198q-68 96 -196 96q-36 0 -47 -8q-6 -5 -7.5 -30t-1.5 -143zM413 719
q-5 0 -23 11l-37 24.5l-53.5 36.5l-34.5 24q-19 13 -19 19q0 4 6 11l50 33q10 7 19 -2q37 -33 98 -70q10 -8 19 -8q5 0 20 7q49 21 119 64q17 10 26 10q10 0 3 -13q-3 -5 -9 -10q-8 -8 -81.5 -63.5t-78.5 -59.5q-17 -14 -24 -14z" />
    <glyph glyph-name="Dcroat" unicode="&#x110;" horiz-adv-x="956" 
d="M166 425v38q0 175 -2 207q-2 27 -10.5 42t-34.5 18q-3 0 -15 1t-22 2q-19 1 -19 11q0 9 23 9q10 0 73.5 -1.5t87.5 -1.5q15 0 35.5 0.5t57.5 1t69 0.5q141 -1 236.5 -26t159.5 -90q96 -96 96 -254q0 -85 -31.5 -157.5t-78.5 -116.5q-117 -119 -342 -119q-63 0 -107 4
q-68 7 -99 7q-48 0 -76 -1q-56 -2 -69 -2q-20 0 -20 10t19 10q16 1 31 4q29 4 33 61q5 80 5 205v85h-100q-7 0 -8.5 2t-0.5 9l4 31q1 11 11 11h94zM343 372v-21q0 -156 2 -194q3 -58 17 -72q29 -36 103 -36q115 0 182 70q65 65 65 235q0 127 -75 229q-84 109 -230 109
q-40 0 -54 -8q-9 -4 -9 -18q1 -18 0 -84.5t-1 -102.5v-54h173q6 0 7.5 -2t1.5 -9l-4 -32q-1 -10 -11 -10h-167z" />
    <glyph glyph-name="dcroat" unicode="&#x111;" horiz-adv-x="864" 
d="M104 629l-29 3q-15 2 -15 11t19 9q5 0 63.5 -1.5t83.5 -1.5q9 0 54.5 1t92.5 1q127 0 211.5 -23t141.5 -78q86 -84 86 -220q0 -73 -28.5 -135t-71.5 -102q-29 -28 -58.5 -47t-96 -37.5t-152.5 -18.5q-25 0 -96 5t-87 5q-21 0 -67 -1.5t-67 -1.5q-18 0 -18 10t16 10
q6 0 26 3q27 2 32.5 38t5.5 145v46v55h-84q-7 0 -8.5 2t-0.5 9l4 31q1 10 11 10h78v45q0 145 -2 173q-1 16 -3 25t-12 18.5t-29 11.5zM319 304v-1q0 -129 2 -163q2 -48 16 -63q26 -29 88 -29q49 0 84 11t67 45q55 55 55 196q0 113 -60 198q-68 96 -196 96q-36 0 -47 -8
q-6 -5 -7.5 -30t-1.5 -143v-57h161q6 0 7.5 -1.5t1.5 -8.5l-4 -32q-1 -10 -11 -10h-155z" />
    <glyph glyph-name="Emacron" unicode="&#x112;" horiz-adv-x="684" 
d="M156 287v176q0 167 -3 215q-3 44 -36 52q-5 1 -18.5 2t-14.5 1q-18 1 -18 11q0 9 22 9q30 0 79.5 -1.5t69.5 -1.5q11 0 143 0.5t139 0.5q34 0 54 4q14 4 16 4q6 0 6 -9q0 -2 -0.5 -6.5t-2 -15t-2.5 -22.5q-3 -20 -8 -107q0 -14 -10 -14q-8 0 -10 14q0 17 -5 35
q-4 19 -18 28t-48 12q-55 5 -150 5q-8 0 -8 -10v-220q0 -12 8 -12q48 -2 145 1q38 2 51.5 6t21.5 17q9 13 14 13q6 0 6 -12q0 -4 -1.5 -16.5t-3.5 -32.5t-3 -36q-1 -23 -1 -83q0 -19 -9 -19q-7 0 -11 16l-3 23q-3 23 -17.5 35t-49.5 14q-56 4 -141 4q-6 0 -6 -13v-69v-38
v-52v-41q1 -54 23 -70t103 -16q62 0 93 12q21 8 31.5 26t17.5 53q3 18 12 18t9 -22q0 -27 -6 -72t-10 -62q-5 -19 -13.5 -23t-37.5 -4q-73 0 -171.5 3t-146.5 3q-23 0 -69.5 -1.5t-74.5 -1.5q-24 0 -24 10t20 10q21 2 30 4q19 3 25.5 27t8.5 78q3 60 3 161zM502 850h-318
q-5 0 -5 8q4 40 11 52q3 6 9 6h321q7 0 7 -8q-3 -29 -11 -50q-4 -8 -14 -8z" />
    <glyph glyph-name="emacron" unicode="&#x113;" horiz-adv-x="628" 
d="M140 249v152q0 146 -3 188q-3 35 -32 40l-27 3q-15 1 -15 11q0 9 19 9q29 0 73 -1.5t61 -1.5q8 0 130.5 0.5t129.5 0.5q31 0 51 4q9 3 14 3q8 0 6 -9q-6 -34 -7 -42q-1 -22 -5 -94q0 -14 -10 -14q-9 0 -10 12q-1 3 -2 13.5t-3 18.5q-4 16 -16.5 24.5t-42.5 11.5
q-66 4 -134 4q-7 0 -7 -9v-183q0 -8 7 -8q89 0 124 1q37 2 50.5 5.5t21.5 16.5q5 11 12 11t7 -11q0 -3 -3 -32.5t-4 -47.5q-2 -38 -2 -75q0 -15 -9 -15t-10 14q-1 3 -1.5 8.5t-0.5 8.5q-4 22 -16.5 33t-45.5 13q-42 3 -124 3q-6 0 -6 -7v-63v-105q1 -47 20.5 -61t93.5 -14
q55 0 83 10q18 7 27.5 23.5t15.5 47.5q3 15 12 15q8 0 8 -18q0 -70 -13 -125q-5 -16 -13 -19.5t-34 -3.5q-72 0 -161 2.5t-132 2.5q-20 0 -64.5 -1.5t-71.5 -1.5q-21 0 -21 11q0 9 18 9q25 3 26 3q20 3 26 25t9 75q0 15 0.5 59t0.5 70zM464 747h-298q-5 0 -5 8q4 34 11 50
q3 6 10 6h301q6 0 6 -8q-4 -33 -11 -48q-4 -8 -14 -8z" />
    <glyph glyph-name="Ebreve" unicode="&#x114;" horiz-adv-x="684" 
d="M156 287v176q0 167 -3 215q-3 44 -36 52q-5 1 -18.5 2t-14.5 1q-18 1 -18 11q0 9 22 9q30 0 79.5 -1.5t69.5 -1.5q11 0 143 0.5t139 0.5q34 0 54 4q14 4 16 4q6 0 6 -9q0 -2 -0.5 -6.5t-2 -15t-2.5 -22.5q-3 -20 -8 -107q0 -14 -10 -14q-8 0 -10 14q0 17 -5 35
q-4 19 -18 28t-48 12q-55 5 -150 5q-8 0 -8 -10v-220q0 -12 8 -12q48 -2 145 1q38 2 51.5 6t21.5 17q9 13 14 13q6 0 6 -12q0 -4 -1.5 -16.5t-3.5 -32.5t-3 -36q-1 -23 -1 -83q0 -19 -9 -19q-7 0 -11 16l-3 23q-3 23 -17.5 35t-49.5 14q-56 4 -141 4q-6 0 -6 -13v-69v-38
v-52v-41q1 -54 23 -70t103 -16q62 0 93 12q21 8 31.5 26t17.5 53q3 18 12 18t9 -22q0 -27 -6 -72t-10 -62q-5 -19 -13.5 -23t-37.5 -4q-73 0 -171.5 3t-146.5 3q-23 0 -69.5 -1.5t-74.5 -1.5q-24 0 -24 10t20 10q21 2 30 4q19 3 25.5 27t8.5 78q3 60 3 161zM158 917
q0 11 10 16q11 11 28.5 20.5t24.5 9.5t9 -6q12 -32 51 -53.5t97 -21.5q104 0 163 71q10 10 16 10q11 0 1 -20q-3 -4 -6 -9q-34 -52 -92 -80t-120 -28q-94 0 -148 39q-34 25 -34 52z" />
    <glyph glyph-name="ebreve" unicode="&#x115;" horiz-adv-x="628" 
d="M140 249v152q0 146 -3 188q-3 35 -32 40l-27 3q-15 1 -15 11q0 9 19 9q29 0 73 -1.5t61 -1.5q8 0 130.5 0.5t129.5 0.5q31 0 51 4q9 3 14 3q8 0 6 -9q-6 -34 -7 -42q-1 -22 -5 -94q0 -14 -10 -14q-9 0 -10 12q-1 3 -2 13.5t-3 18.5q-4 16 -16.5 24.5t-42.5 11.5
q-66 4 -134 4q-7 0 -7 -9v-183q0 -8 7 -8q89 0 124 1q37 2 50.5 5.5t21.5 16.5q5 11 12 11t7 -11q0 -3 -3 -32.5t-4 -47.5q-2 -38 -2 -75q0 -15 -9 -15t-10 14q-1 3 -1.5 8.5t-0.5 8.5q-4 22 -16.5 33t-45.5 13q-42 3 -124 3q-6 0 -6 -7v-63v-105q1 -47 20.5 -61t93.5 -14
q55 0 83 10q18 7 27.5 23.5t15.5 47.5q3 15 12 15q8 0 8 -18q0 -70 -13 -125q-5 -16 -13 -19.5t-34 -3.5q-72 0 -161 2.5t-132 2.5q-20 0 -64.5 -1.5t-71.5 -1.5q-21 0 -21 11q0 9 18 9q25 3 26 3q20 3 26 25t9 75q0 15 0.5 59t0.5 70zM140 816q0 8 10 16q11 11 27.5 20
t22.5 9q7 0 9 -6q11 -31 48 -52.5t92 -21.5q52 0 86 16t63 51q9 9 15 9q12 0 -2 -24q-1 -1 -2 -3q-33 -48 -86 -73.5t-111 -25.5q-88 0 -139 36q-33 25 -33 49z" />
    <glyph glyph-name="Edotaccent" unicode="&#x116;" horiz-adv-x="684" 
d="M156 287v176q0 167 -3 215q-3 44 -36 52q-5 1 -18.5 2t-14.5 1q-18 1 -18 11q0 9 22 9q30 0 79.5 -1.5t69.5 -1.5q11 0 143 0.5t139 0.5q34 0 54 4q14 4 16 4q6 0 6 -9q0 -2 -0.5 -6.5t-2 -15t-2.5 -22.5q-3 -20 -8 -107q0 -14 -10 -14q-8 0 -10 14q0 17 -5 35
q-4 19 -18 28t-48 12q-55 5 -150 5q-8 0 -8 -10v-220q0 -12 8 -12q48 -2 145 1q38 2 51.5 6t21.5 17q9 13 14 13q6 0 6 -12q0 -4 -1.5 -16.5t-3.5 -32.5t-3 -36q-1 -23 -1 -83q0 -19 -9 -19q-7 0 -11 16l-3 23q-3 23 -17.5 35t-49.5 14q-56 4 -141 4q-6 0 -6 -13v-69v-38
v-52v-41q1 -54 23 -70t103 -16q62 0 93 12q21 8 31.5 26t17.5 53q3 18 12 18t9 -22q0 -27 -6 -72t-10 -62q-5 -19 -13.5 -23t-37.5 -4q-73 0 -171.5 3t-146.5 3q-23 0 -69.5 -1.5t-74.5 -1.5q-24 0 -24 10t20 10q21 2 30 4q19 3 25.5 27t8.5 78q3 60 3 161zM363 830
q-28 0 -44.5 18t-16.5 43q0 24 17 43.5t44 19.5q25 0 43 -18t18 -43q0 -24 -17.5 -43.5t-43.5 -19.5z" />
    <glyph glyph-name="edotaccent" unicode="&#x117;" horiz-adv-x="628" 
d="M140 249v152q0 146 -3 188q-3 35 -32 40l-27 3q-15 1 -15 11q0 9 19 9q29 0 73 -1.5t61 -1.5q8 0 130.5 0.5t129.5 0.5q31 0 51 4q9 3 14 3q8 0 6 -9q-6 -34 -7 -42q-1 -22 -5 -94q0 -14 -10 -14q-9 0 -10 12q-1 3 -2 13.5t-3 18.5q-4 16 -16.5 24.5t-42.5 11.5
q-66 4 -134 4q-7 0 -7 -9v-183q0 -8 7 -8q89 0 124 1q37 2 50.5 5.5t21.5 16.5q5 11 12 11t7 -11q0 -3 -3 -32.5t-4 -47.5q-2 -38 -2 -75q0 -15 -9 -15t-10 14q-1 3 -1.5 8.5t-0.5 8.5q-4 22 -16.5 33t-45.5 13q-42 3 -124 3q-6 0 -6 -7v-63v-105q1 -47 20.5 -61t93.5 -14
q55 0 83 10q18 7 27.5 23.5t15.5 47.5q3 15 12 15q8 0 8 -18q0 -70 -13 -125q-5 -16 -13 -19.5t-34 -3.5q-72 0 -161 2.5t-132 2.5q-20 0 -64.5 -1.5t-71.5 -1.5q-21 0 -21 11q0 9 18 9q25 3 26 3q20 3 26 25t9 75q0 15 0.5 59t0.5 70zM321 730q-27 0 -43.5 17.5t-16.5 42.5
q0 24 17 43.5t43 19.5t44 -18t18 -43q0 -24 -17.5 -43t-44.5 -19z" />
    <glyph glyph-name="Eogonek" unicode="&#x118;" horiz-adv-x="684" 
d="M333 354v-69v-38v-52v-41q1 -54 23 -70t103 -16q62 0 93 12q21 8 31.5 26t17.5 53q3 18 12 18t9 -22q0 -27 -6 -72t-10 -62q-5 -19 -13.5 -23t-37.5 -4h-21q-30 -22 -45.5 -54t-15.5 -54q0 -61 63 -61q29 0 58 18q4 3 9 2.5t5 -3.5q0 -10 -9 -19q-14 -16 -47.5 -33
t-76.5 -17q-47 0 -74 23t-27 63q0 31 32 67t93 68l-122.5 3.5t-139.5 2.5q-23 0 -69.5 -1.5t-74.5 -1.5q-24 0 -24 10t20 10q21 2 30 4q19 3 25.5 27t8.5 78q3 60 3 161v176q0 167 -3 215q-3 44 -36 52q-5 1 -18.5 2t-14.5 1q-18 1 -18 11q0 9 22 9q30 0 79.5 -1.5
t69.5 -1.5q11 0 143 0.5t139 0.5q34 0 54 4q14 4 16 4q6 0 6 -9q0 -2 -0.5 -6.5t-2 -15t-2.5 -22.5q-3 -20 -8 -107q0 -14 -10 -14q-8 0 -10 14q0 17 -5 35q-4 19 -18 28t-48 12q-55 5 -150 5q-8 0 -8 -10v-220q0 -12 8 -12q48 -2 145 1q38 2 51.5 6t21.5 17q9 13 14 13
q6 0 6 -12q0 -4 -1.5 -16.5t-3.5 -32.5t-3 -36q-1 -23 -1 -83q0 -19 -9 -19q-7 0 -11 16l-3 23q-3 23 -17.5 35t-49.5 14q-56 4 -141 4q-6 0 -6 -13z" />
    <glyph glyph-name="eogonek" unicode="&#x119;" horiz-adv-x="628" 
d="M310 308v-63v-105q1 -47 20.5 -61t93.5 -14q55 0 83 10q18 7 27.5 23.5t15.5 47.5q3 15 12 15q8 0 8 -18q0 -70 -13 -125q-5 -16 -13 -19.5t-34 -3.5h-16q-31 -22 -46 -52.5t-15 -53.5q0 -64 65 -64q29 0 55 18q5 2 9.5 2t4.5 -4q0 -10 -9 -19q-14 -15 -47 -32t-76 -17
q-47 0 -75 23t-28 62q0 69 128 137q-48 0 -124 2.5t-119 2.5q-20 0 -64.5 -1.5t-71.5 -1.5q-21 0 -21 11q0 9 18 9q25 3 26 3q20 3 26 25t9 75q0 15 0.5 59t0.5 70v152q0 146 -3 188q-3 35 -32 40l-27 3q-15 1 -15 11q0 9 19 9q29 0 73 -1.5t61 -1.5q8 0 130.5 0.5
t129.5 0.5q31 0 51 4q9 3 14 3q8 0 6 -9q-6 -34 -7 -42q-1 -22 -5 -94q0 -14 -10 -14q-9 0 -10 12q-1 3 -2 13.5t-3 18.5q-4 16 -16.5 24.5t-42.5 11.5q-66 4 -134 4q-7 0 -7 -9v-183q0 -8 7 -8q89 0 124 1q37 2 50.5 5.5t21.5 16.5q5 11 12 11t7 -11q0 -3 -3 -32.5
t-4 -47.5q-2 -38 -2 -75q0 -15 -9 -15t-10 14q-1 3 -1.5 8.5t-0.5 8.5q-4 22 -16.5 33t-45.5 13q-42 3 -124 3q-6 0 -6 -7z" />
    <glyph glyph-name="Ecaron" unicode="&#x11a;" horiz-adv-x="684" 
d="M156 287v176q0 167 -3 215q-3 44 -36 52q-5 1 -18.5 2t-14.5 1q-18 1 -18 11q0 9 22 9q30 0 79.5 -1.5t69.5 -1.5q11 0 143 0.5t139 0.5q34 0 54 4q14 4 16 4q6 0 6 -9q0 -2 -0.5 -6.5t-2 -15t-2.5 -22.5q-3 -20 -8 -107q0 -14 -10 -14q-8 0 -10 14q0 17 -5 35
q-4 19 -18 28t-48 12q-55 5 -150 5q-8 0 -8 -10v-220q0 -12 8 -12q48 -2 145 1q38 2 51.5 6t21.5 17q9 13 14 13q6 0 6 -12q0 -4 -1.5 -16.5t-3.5 -32.5t-3 -36q-1 -23 -1 -83q0 -19 -9 -19q-7 0 -11 16l-3 23q-3 23 -17.5 35t-49.5 14q-56 4 -141 4q-6 0 -6 -13v-69v-38
v-52v-41q1 -54 23 -70t103 -16q62 0 93 12q21 8 31.5 26t17.5 53q3 18 12 18t9 -22q0 -27 -6 -72t-10 -62q-5 -19 -13.5 -23t-37.5 -4q-73 0 -171.5 3t-146.5 3q-23 0 -69.5 -1.5t-74.5 -1.5q-24 0 -24 10t20 10q21 2 30 4q19 3 25.5 27t8.5 78q3 60 3 161zM356 808
q-7 0 -24 11l-133 91q-19 13 -19 19q0 3 7 10l50 33q10 7 18 -1q41 -36 106 -76q13 -9 19 -9t20 7q32 15 130 72q16 10 26 10t3 -12q-3 -5 -9 -10q-8 -8 -86.5 -67.5t-83.5 -63.5q-17 -14 -24 -14z" />
    <glyph glyph-name="ecaron" unicode="&#x11b;" horiz-adv-x="628" 
d="M140 249v152q0 146 -3 188q-3 35 -32 40l-27 3q-15 1 -15 11q0 9 19 9q29 0 73 -1.5t61 -1.5q8 0 130.5 0.5t129.5 0.5q31 0 51 4q9 3 14 3q8 0 6 -9q-6 -34 -7 -42q-1 -22 -5 -94q0 -14 -10 -14q-9 0 -10 12q-1 3 -2 13.5t-3 18.5q-4 16 -16.5 24.5t-42.5 11.5
q-66 4 -134 4q-7 0 -7 -9v-183q0 -8 7 -8q89 0 124 1q37 2 50.5 5.5t21.5 16.5q5 11 12 11t7 -11q0 -3 -3 -32.5t-4 -47.5q-2 -38 -2 -75q0 -15 -9 -15t-10 14q-1 3 -1.5 8.5t-0.5 8.5q-4 22 -16.5 33t-45.5 13q-42 3 -124 3q-6 0 -6 -7v-63v-105q1 -47 20.5 -61t93.5 -14
q55 0 83 10q18 7 27.5 23.5t15.5 47.5q3 15 12 15q8 0 8 -18q0 -70 -13 -125q-5 -16 -13 -19.5t-34 -3.5q-72 0 -161 2.5t-132 2.5q-20 0 -64.5 -1.5t-71.5 -1.5q-21 0 -21 11q0 9 18 9q25 3 26 3q20 3 26 25t9 75q0 15 0.5 59t0.5 70zM324 712q-7 0 -23 11l-64 43.5
l-61 41.5q-19 14 -19 19q0 4 6 10l50 34q11 7 19 -2q37 -33 98 -70q11 -8 19 -8q5 0 20 6q47 22 119 64q17 10 26 10q10 0 3 -12q-3 -5 -9 -10q-8 -8 -81.5 -63.5t-78.5 -59.5q-15 -14 -24 -14z" />
    <glyph glyph-name="Gcircumflex" unicode="&#x11c;" horiz-adv-x="914" 
d="M796 165v-72q0 -44 -3 -55.5t-17 -16.5q-41 -16 -110 -27t-135 -11q-219 0 -347.5 99.5t-128.5 292.5q0 117 51 199.5t129 126.5q111 66 287 66q76 0 162 -14l43 -6t53 -6q11 0 10 -13q-11 -55 -11 -184q0 -21 -11 -21q-10 0 -12 16q-4 31 -12 50q-15 52 -80 84t-167 32
q-115 0 -179 -72q-63 -71 -63 -216q0 -55 10.5 -107t33.5 -100.5t57 -84t84 -57t111 -21.5q40 0 56 12q12 9 12 27v61q0 80 -1 117q0 42 -10.5 60.5t-36.5 22.5q-6 1 -12.5 1.5t-15.5 1.5t-15 2q-16 0 -16 10t21 10q37 0 98.5 -1.5t70.5 -1.5q16 0 71 1.5t84 1.5
q23 0 23 -10q0 -8 -16 -10q-2 0 -6.5 -0.5t-10.5 -1.5t-10 -1q-19 -4 -27.5 -15t-10.5 -36q-3 -48 -3 -133zM502 995q7 0 23 -10l68.5 -46.5l65.5 -44.5q18 -12 18 -19q0 -5 -6 -10l-51 -37q-8 -7 -18 3q-40 35 -105 75q-13 9 -19 9t-21 -7q-31 -15 -129 -72
q-17 -10 -25 -10q-10 0 -6 10q3 6 11 12q6 5 83.5 65.5t86.5 68.5q17 13 24 13z" />
    <glyph glyph-name="gcircumflex" unicode="&#x11d;" horiz-adv-x="831" 
d="M722 141v-55q0 -43 -3 -53.5t-17 -15.5q-96 -32 -219 -32q-200 0 -315.5 86.5t-115.5 253.5q0 102 46.5 172.5t117.5 109.5q100 57 261 57q62 0 141 -11q12 -1 30.5 -4t32.5 -5t26 -2q13 0 8 -14q-11 -88 -11 -163q0 -19 -11 -19q-8 0 -10 16q-5 27 -8 35q-8 51 -67 80
t-156 29q-105 0 -157 -64q-51 -63 -51 -179q0 -58 13.5 -112.5t41.5 -101.5t77 -75.5t113 -28.5q41 0 53 12q9 6 9 21v44q0 67 1 100q0 40 -10 56.5t-35 19.5q-14 2 -39 4q-14 2 -14 12q0 8 19 8q36 0 92.5 -1t63.5 -1q15 0 67 1t82 1q20 0 20 -9q0 -7 -14 -11q-10 0 -24 -2
q-18 -2 -25.5 -11t-8.5 -31q-4 -30 -4 -117zM445 876q7 0 23 -11l123 -82q19 -14 19 -19t-7 -11l-50 -34q-10 -7 -18 3q-31 27 -96 67q-11 9 -19 9q-5 0 -20 -7q-47 -22 -119 -64q-17 -10 -25 -10q-10 0 -5 11q3 5 10 11q6 5 78.5 60.5t81.5 63.5q17 13 24 13z" />
    <glyph glyph-name="Gbreve" unicode="&#x11e;" horiz-adv-x="914" 
d="M796 165v-72q0 -44 -3 -55.5t-17 -16.5q-41 -16 -110 -27t-135 -11q-219 0 -347.5 99.5t-128.5 292.5q0 117 51 199.5t129 126.5q111 66 287 66q76 0 162 -14l43 -6t53 -6q11 0 10 -13q-11 -55 -11 -184q0 -21 -11 -21q-10 0 -12 16q-4 31 -12 50q-15 52 -80 84t-167 32
q-115 0 -179 -72q-63 -71 -63 -216q0 -55 10.5 -107t33.5 -100.5t57 -84t84 -57t111 -21.5q40 0 56 12q12 9 12 27v61q0 80 -1 117q0 42 -10.5 60.5t-36.5 22.5q-6 1 -12.5 1.5t-15.5 1.5t-15 2q-16 0 -16 10t21 10q37 0 98.5 -1.5t70.5 -1.5q16 0 71 1.5t84 1.5
q23 0 23 -10q0 -8 -16 -10q-2 0 -6.5 -0.5t-10.5 -1.5t-10 -1q-19 -4 -27.5 -15t-10.5 -36q-3 -48 -3 -133zM286 929q0 11 10 16q11 12 28.5 21.5t24.5 9.5t9 -6q12 -32 51 -54t97 -22q104 0 163 71q10 11 16 11q10 0 2 -19q-2 -5 -6 -10q-34 -53 -92.5 -80.5t-120.5 -27.5
q-93 0 -148 38q-34 27 -34 52z" />
    <glyph glyph-name="gbreve" unicode="&#x11f;" horiz-adv-x="831" 
d="M722 141v-55q0 -43 -3 -53.5t-17 -15.5q-96 -32 -219 -32q-200 0 -315.5 86.5t-115.5 253.5q0 102 46.5 172.5t117.5 109.5q100 57 261 57q62 0 141 -11q12 -1 30.5 -4t32.5 -5t26 -2q13 0 8 -14q-11 -88 -11 -163q0 -19 -11 -19q-8 0 -10 16q-5 27 -8 35q-8 51 -67 80
t-156 29q-105 0 -157 -64q-51 -63 -51 -179q0 -58 13.5 -112.5t41.5 -101.5t77 -75.5t113 -28.5q41 0 53 12q9 6 9 21v44q0 67 1 100q0 40 -10 56.5t-35 19.5q-14 2 -39 4q-14 2 -14 12q0 8 19 8q36 0 92.5 -1t63.5 -1q15 0 67 1t82 1q20 0 20 -9q0 -7 -14 -11q-10 0 -24 -2
q-18 -2 -25.5 -11t-8.5 -31q-4 -30 -4 -117zM243 823q0 9 9 16q11 11 27.5 20t22.5 9t9 -7q11 -31 48 -52t92 -21q52 0 86 16t63 50q9 10 16 10q10 0 0 -19q-2 -4 -5 -8q-33 -48 -86 -74t-111 -26q-86 0 -139 37q-32 23 -32 49z" />
    <glyph glyph-name="Gdotaccent" unicode="&#x120;" horiz-adv-x="914" 
d="M796 165v-72q0 -44 -3 -55.5t-17 -16.5q-41 -16 -110 -27t-135 -11q-219 0 -347.5 99.5t-128.5 292.5q0 117 51 199.5t129 126.5q111 66 287 66q76 0 162 -14l43 -6t53 -6q11 0 10 -13q-11 -55 -11 -184q0 -21 -11 -21q-10 0 -12 16q-4 31 -12 50q-15 52 -80 84t-167 32
q-115 0 -179 -72q-63 -71 -63 -216q0 -55 10.5 -107t33.5 -100.5t57 -84t84 -57t111 -21.5q40 0 56 12q12 9 12 27v61q0 80 -1 117q0 42 -10.5 60.5t-36.5 22.5q-6 1 -12.5 1.5t-15.5 1.5t-15 2q-16 0 -16 10t21 10q37 0 98.5 -1.5t70.5 -1.5q16 0 71 1.5t84 1.5
q23 0 23 -10q0 -8 -16 -10q-2 0 -6.5 -0.5t-10.5 -1.5t-10 -1q-19 -4 -27.5 -15t-10.5 -36q-3 -48 -3 -133zM489 834q-28 0 -44.5 18t-16.5 43q0 24 17 43.5t44 19.5q25 0 43 -18t18 -43q0 -24 -17.5 -43.5t-43.5 -19.5z" />
    <glyph glyph-name="gdotaccent" unicode="&#x121;" horiz-adv-x="831" 
d="M722 141v-55q0 -43 -3 -53.5t-17 -15.5q-96 -32 -219 -32q-200 0 -315.5 86.5t-115.5 253.5q0 102 46.5 172.5t117.5 109.5q100 57 261 57q62 0 141 -11q12 -1 30.5 -4t32.5 -5t26 -2q13 0 8 -14q-11 -88 -11 -163q0 -19 -11 -19q-8 0 -10 16q-5 27 -8 35q-8 51 -67 80
t-156 29q-105 0 -157 -64q-51 -63 -51 -179q0 -58 13.5 -112.5t41.5 -101.5t77 -75.5t113 -28.5q41 0 53 12q9 6 9 21v44q0 67 1 100q0 40 -10 56.5t-35 19.5q-14 2 -39 4q-14 2 -14 12q0 8 19 8q36 0 92.5 -1t63.5 -1q15 0 67 1t82 1q20 0 20 -9q0 -7 -14 -11q-10 0 -24 -2
q-18 -2 -25.5 -11t-8.5 -31q-4 -30 -4 -117zM438 737q-28 0 -44.5 18t-16.5 42t17 43.5t44 19.5q26 0 43.5 -18t17.5 -43q0 -24 -17.5 -43t-43.5 -19z" />
    <glyph glyph-name="uni0122" unicode="&#x122;" horiz-adv-x="914" 
d="M796 165v-72q0 -44 -3 -55.5t-17 -16.5q-41 -16 -110 -27t-135 -11q-219 0 -347.5 99.5t-128.5 292.5q0 117 51 199.5t129 126.5q111 66 287 66q76 0 162 -14l43 -6t53 -6q11 0 10 -13q-11 -55 -11 -184q0 -21 -11 -21q-10 0 -12 16q-4 31 -12 50q-15 52 -80 84t-167 32
q-115 0 -179 -72q-63 -71 -63 -216q0 -55 10.5 -107t33.5 -100.5t57 -84t84 -57t111 -21.5q40 0 56 12q12 9 12 27v61q0 80 -1 117q0 42 -10.5 60.5t-36.5 22.5q-6 1 -12.5 1.5t-15.5 1.5t-15 2q-16 0 -16 10t21 10q37 0 98.5 -1.5t70.5 -1.5q16 0 71 1.5t84 1.5
q23 0 23 -10q0 -8 -16 -10q-2 0 -6.5 -0.5t-10.5 -1.5t-10 -1q-19 -4 -27.5 -15t-10.5 -36q-3 -48 -3 -133zM413 -134q0 10 45 38t69 28q19 0 32.5 -21t13.5 -50q0 -52 -38.5 -100t-99.5 -79q-11 -6 -21 -7t-11 6q0 7 10 14q62 44 62 92q0 35 -50 64q-12 6 -12 15z" />
    <glyph glyph-name="uni0123" unicode="&#x123;" horiz-adv-x="831" 
d="M722 141v-55q0 -43 -3 -53.5t-17 -15.5q-96 -32 -219 -32q-200 0 -315.5 86.5t-115.5 253.5q0 102 46.5 172.5t117.5 109.5q100 57 261 57q62 0 141 -11q12 -1 30.5 -4t32.5 -5t26 -2q13 0 8 -14q-11 -88 -11 -163q0 -19 -11 -19q-8 0 -10 16q-5 27 -8 35q-8 51 -67 80
t-156 29q-105 0 -157 -64q-51 -63 -51 -179q0 -58 13.5 -112.5t41.5 -101.5t77 -75.5t113 -28.5q41 0 53 12q9 6 9 21v44q0 67 1 100q0 40 -10 56.5t-35 19.5q-14 2 -39 4q-14 2 -14 12q0 8 19 8q36 0 92.5 -1t63.5 -1q15 0 67 1t82 1q20 0 20 -9q0 -7 -14 -11q-10 0 -24 -2
q-18 -2 -25.5 -11t-8.5 -31q-4 -30 -4 -117zM352 -131q0 11 47 40.5t73 29.5q20 0 34 -22t14 -52q0 -55 -40.5 -105t-105.5 -84q-11 -6 -21 -7t-12 6q0 6 11 15q65 46 65 96q0 37 -52 68q-13 6 -13 15z" />
    <glyph glyph-name="Hcircumflex" unicode="&#x124;" horiz-adv-x="986" 
d="M339 445h312q6 0 6 7v21q0 172 -2 204q-2 23 -11 35.5t-32 17.5q-2 0 -35 3q-19 0 -19 10t20 10q26 0 63 -0.5t64.5 -1.5t30.5 -1l70 2q71 1 97 1q20 0 20 -10t-15 -10q-6 -1 -13 -1.5t-12 -1t-10 -1.5q-33 -5 -37 -53q-2 -32 -2 -213v-176q0 -169 5 -211q2 -26 11 -38.5
t30 -16.5q8 -1 25.5 -2.5t18.5 -1.5q17 0 17 -10t-20 -10q-41 0 -113 1.5t-75 1.5q-4 0 -59 -1.5t-84 -1.5q-22 0 -22 11q0 9 19 9q24 2 31 4q17 4 24 17t9 39q6 63 6 200v81q0 6 -6 6h-312q-6 0 -6 -6v-104q0 -125 5 -179q5 -47 42 -53q23 -3 42 -5q19 0 19 -10t-20 -10
q-25 0 -69 0.5t-78.5 1.5t-37.5 1q-2 0 -64.5 -1.5t-81.5 -1.5q-22 0 -22 9q0 11 17 11q11 1 31 4q31 4 35 59q5 70 5 207v174q0 162 -3 210q-2 27 -12.5 41t-35.5 18q-6 1 -28 3q-20 1 -20 11q0 9 22 9q33 0 92 -1.5t66 -1.5q18 0 80.5 1.5t84.5 1.5q21 0 21 -10t-18 -10
q-26 -2 -35 -4q-19 -4 -25.5 -18.5t-8.5 -39.5q-3 -32 -3 -198v-21q0 -7 6 -7zM511 991q7 0 23 -11l133 -90q19 -14 19 -19t-7 -11l-50 -36q-10 -6 -18 2q-37 34 -106 76q-11 8 -19 8t-20 -6q-42 -20 -130 -73q-16 -9 -25 -9q-10 0 -5 11q3 5 10 11q1 1 44 34l81 63t46 37
q16 13 24 13z" />
    <glyph glyph-name="hcircumflex" unicode="&#x125;" horiz-adv-x="893" 
d="M315 389h264q6 0 6 5v18q0 146 -2 174q-3 37 -39 43q-3 1 -31 3q-17 0 -17 10t18 10q23 0 58 -1t60.5 -1.5t26.5 -0.5t31.5 0.5t68.5 1.5t55 1q18 0 18 -10t-14 -10q-19 -2 -28 -4q-17 -2 -24 -12t-9 -32q-3 -28 -3 -183v-152q0 -137 5 -181q2 -23 10 -34t28 -14
q7 -1 20.5 -2t16.5 -1q17 -1 17 -11q0 -9 -20 -9q-36 0 -104.5 1.5t-69.5 1.5q-3 0 -53.5 -1.5t-77.5 -1.5q-19 0 -19 10t16 10q22 2 26 3q16 3 22.5 14.5t8.5 34.5q5 45 5 170v66q0 6 -6 6h-264q-6 0 -6 -6v-92q0 -101 5 -146q5 -42 41 -46q8 -2 21 -3l13 -1q17 -1 17 -11
q0 -9 -17 -9q-22 0 -64 0.5t-75 1.5t-34 1t-29.5 -1t-61.5 -1.5t-45 -0.5q-19 0 -19 9q0 10 15 11q21 2 26 3q29 4 33 52q5 46 5 177v149q0 139 -3 181q-2 24 -10.5 35t-32.5 15l-27 3q-15 1 -15 11q0 9 19 9q31 0 89 -1.5t64 -1.5q18 0 71.5 1.5t73.5 1.5q19 0 19 -11
q0 -8 -16 -9q-18 -2 -28 -4q-28 -5 -32 -49q-3 -28 -3 -167v-18q0 -5 6 -5zM469 877q7 0 23 -10l123 -83q19 -13 19 -19q0 -5 -7 -10l-51 -35q-8 -7 -18 3q-27 23 -95 68q-14 8 -19 8q-6 0 -20 -7q-52 -23 -120 -64q-16 -10 -24 -10q-10 0 -6 10q2 6 10 12q3 2 77 58.5
t84 65.5q16 13 24 13z" />
    <glyph glyph-name="Hbar" unicode="&#x126;" horiz-adv-x="986" 
d="M834 463v-176q0 -169 5 -211q2 -26 11 -38.5t30 -16.5q8 -1 25.5 -2.5t18.5 -1.5q17 0 17 -10t-20 -10q-41 0 -113 1.5t-75 1.5q-4 0 -59 -1.5t-84 -1.5q-22 0 -22 11q0 9 19 9q24 2 31 4q17 4 24 17t9 39q6 63 6 200v64q0 6 -6 6h-312q-6 0 -6 -6v-87q0 -125 5 -179
q5 -47 42 -53q23 -3 42 -5q19 0 19 -10t-20 -10q-25 0 -69 0.5t-78.5 1.5t-37.5 1q-2 0 -64.5 -1.5t-81.5 -1.5q-22 0 -22 9q0 11 17 11q11 1 31 4q31 4 35 59q5 70 5 207v174v71h-75q-28 0 -29 4t2 23t5 22q1 3 27 3h70q-1 45 -3 87q-2 27 -12.5 41t-35.5 18q-6 1 -28 3
q-20 1 -20 11q0 9 22 9q33 0 92 -1.5t66 -1.5q18 0 80.5 1.5t84.5 1.5q21 0 21 -10t-18 -10q-26 -2 -35 -4q-19 -4 -25.5 -18.5t-8.5 -39.5q-1 -11 -3 -87h324q0 53 -2 93q-2 23 -11 35.5t-32 17.5q-2 0 -35 3q-19 0 -19 10t20 10q26 0 63 -0.5t64.5 -1.5t30.5 -1l70 2
q71 1 97 1q20 0 20 -10t-15 -10q-6 -1 -13 -1.5t-12 -1t-10 -1.5q-33 -5 -37 -53q-2 -42 -2 -92h77q27 0 28 -3q1 -4 -1 -22.5t-4 -23.5q-3 -3 -16 -3h-84v-69zM657 435v21v76h-324v-76v-21q0 -6 6 -6h312q6 0 6 6z" />
    <glyph glyph-name="hbar" unicode="&#x127;" horiz-adv-x="893" 
d="M754 401v-152q0 -137 5 -181q2 -23 10 -34t28 -14q7 -1 20.5 -2t16.5 -1q17 -1 17 -11q0 -9 -20 -9q-36 0 -104.5 1.5t-69.5 1.5q-3 0 -53.5 -1.5t-77.5 -1.5q-19 0 -19 10t16 10q22 2 26 3q16 3 22.5 14.5t8.5 34.5q5 45 5 170v56q0 6 -6 6h-264q-6 0 -6 -6v-82
q0 -101 5 -146q5 -42 41 -46q8 -2 21 -3l13 -1q17 -1 17 -11q0 -9 -17 -9q-22 0 -64 0.5t-75 1.5t-34 1t-29.5 -1t-61.5 -1.5t-45 -0.5q-19 0 -19 9q0 10 15 11q21 2 26 3q29 4 33 52q5 46 5 177v149v63h-50q-24 0 -26 3q-1 4 1.5 21.5t4.5 18.5q3 3 24 3h46q-1 32 -3 72
q-2 24 -10.5 35t-32.5 15l-27 3q-15 1 -15 11q0 9 19 9q31 0 89 -1.5t64 -1.5q18 0 71.5 1.5t73.5 1.5q19 0 19 -11q0 -8 -16 -9q-18 -2 -28 -4q-28 -5 -32 -49q-3 -25 -3 -72h276q0 41 -2 79q-3 37 -39 43q-3 1 -31 3q-17 0 -17 10t18 10q23 0 58 -1t60.5 -1.5t26.5 -0.5
t31.5 0.5t68.5 1.5t55 1q18 0 18 -10t-14 -10q-19 -2 -28 -4q-17 -2 -24 -12t-9 -32q-3 -27 -3 -77h57q23 0 24 -3q2 -3 0 -19.5t-4 -20.5q-3 -3 -14 -3h-63v-60zM585 383v29v49h-276v-49v-29q0 -5 6 -5h264q6 0 6 5z" />
    <glyph glyph-name="Itilde" unicode="&#x128;" horiz-adv-x="489" 
d="M156 287v176q0 184 -3 216q-3 44 -35 50q-8 2 -30 4q-19 0 -19 11q0 9 22 9q18 0 52.5 -0.5t63 -1.5t30.5 -1q1 0 71.5 1.5t91.5 1.5q22 0 22 -10t-19 -10q-27 -3 -29 -3q-20 -4 -28.5 -15.5t-9.5 -38.5q-3 -32 -3 -213v-176q0 -161 5 -214q3 -43 38 -51q11 -2 44 -5
q21 0 21 -10t-21 -10q-30 0 -73.5 0.5t-76 1.5t-34.5 1q-1 0 -30.5 -1t-64 -1.5t-49.5 -0.5q-24 0 -24 10t20 10q20 2 31 4q26 4 31 54q6 63 6 212zM321 830q-29 0 -91.5 25.5t-86.5 25.5q-31 0 -48.5 -10t-36.5 -31q-7 -8 -14 -8q-11 0 -1 19q25 44 58 70t65 26
q36 0 92 -22l30 -11.5t26.5 -9.5t17 -4.5t19.5 -2.5q27 0 43.5 9.5t42.5 37.5q5 5 10 5q10 0 1 -18q-57 -101 -127 -101z" />
    <glyph glyph-name="itilde" unicode="&#x129;" horiz-adv-x="449" 
d="M140 249v152q0 158 -3 185q-3 38 -30 42q-7 2 -28 4q-17 1 -17 10q0 10 20 10q15 0 48 -1t60 -1l26 -1q1 0 32.5 0.5t68 1.5t51.5 1q18 0 18 -10q0 -8 -18 -10q-11 -1 -20 -3q-18 -4 -25.5 -13t-10.5 -31q-3 -28 -3 -184v-152q0 -139 5 -185q3 -36 35 -43q2 -1 37 -4
q19 0 19 -11q0 -9 -19 -9q-27 0 -68.5 0.5t-71.5 1.5l-30 1l-28 -1q-28 -1 -61 -1.5t-45 -0.5q-21 0 -21 10t15 10q2 0 12 1t17 2q26 5 29 47q6 43 6 182zM298 734q-26 0 -84 24.5t-80 24.5q-20 0 -35.5 -6.5t-23 -13t-20.5 -19.5q-8 -8 -13 -8q-10 0 -1 19q24 42 54.5 67
t59.5 25q32 0 85 -21q67 -27 87 -27q24 0 39.5 9t38.5 35q4 5 10 5q4 0 4 -5.5t-3 -11.5q-54 -97 -118 -97z" />
    <glyph glyph-name="Imacron" unicode="&#x12a;" horiz-adv-x="489" 
d="M156 287v176q0 184 -3 216q-3 44 -35 50q-8 2 -30 4q-19 0 -19 11q0 9 22 9q18 0 52.5 -0.5t63 -1.5t30.5 -1q1 0 71.5 1.5t91.5 1.5q22 0 22 -10t-19 -10q-27 -3 -29 -3q-20 -4 -28.5 -15.5t-9.5 -38.5q-3 -32 -3 -213v-176q0 -161 5 -214q3 -43 38 -51q11 -2 44 -5
q21 0 21 -10t-21 -10q-30 0 -73.5 0.5t-76 1.5t-34.5 1q-1 0 -30.5 -1t-64 -1.5t-49.5 -0.5q-24 0 -24 10t20 10q20 2 31 4q26 4 31 54q6 63 6 212zM394 847h-318q-5 0 -5 7q4 39 11 52q4 7 9 7h321q7 0 7 -8q-4 -36 -11 -50q-4 -8 -14 -8z" />
    <glyph glyph-name="imacron" unicode="&#x12b;" horiz-adv-x="449" 
d="M140 249v152q0 158 -3 185q-3 38 -30 42q-7 2 -28 4q-17 1 -17 10q0 10 20 10q15 0 48 -1t60 -1l26 -1q1 0 32.5 0.5t68 1.5t51.5 1q18 0 18 -10q0 -8 -18 -10q-11 -1 -20 -3q-18 -4 -25.5 -13t-10.5 -31q-3 -28 -3 -184v-152q0 -139 5 -185q3 -36 35 -43q2 -1 37 -4
q19 0 19 -11q0 -9 -19 -9q-27 0 -68.5 0.5t-71.5 1.5l-30 1l-28 -1q-28 -1 -61 -1.5t-45 -0.5q-21 0 -21 10t15 10q2 0 12 1t17 2q26 5 29 47q6 43 6 182zM361 753h-298q-5 0 -5 8q4 35 11 49q3 7 10 7h301q6 0 6 -8q-4 -33 -11 -48q-4 -8 -14 -8z" />
    <glyph glyph-name="Iogonek" unicode="&#x12e;" horiz-adv-x="489" 
d="M331 463v-176q0 -161 5 -214q3 -43 38 -51q11 -2 44 -5q21 0 21 -10t-21 -10q-52 0 -128 2q-28 -23 -41.5 -55t-13.5 -55q0 -63 64 -63q29 0 51 12q17 10 17 -2q0 -7 -7 -14q-49 -49 -123 -49q-48 0 -77 23.5t-29 63.5q0 31 33 69t93 71h-23q-1 0 -30.5 -1t-64 -1.5
t-49.5 -0.5q-24 0 -24 10t20 10q20 2 31 4q26 4 31 54q6 63 6 212v176q0 184 -3 216q-3 44 -35 50q-8 2 -30 4q-19 0 -19 11q0 9 22 9q24 0 85 -1l61 -2q1 0 71.5 1.5t91.5 1.5q22 0 22 -10t-19 -10q-27 -3 -29 -3q-20 -4 -28.5 -15.5t-9.5 -38.5q-3 -32 -3 -213z" />
    <glyph glyph-name="iogonek" unicode="&#x12f;" horiz-adv-x="449" 
d="M309 401v-152q0 -139 5 -185q3 -36 35 -43q2 -1 37 -4q19 0 19 -11q0 -9 -19 -9q-40 0 -108 2q-34 -22 -50 -54t-16 -56q0 -64 65 -64q29 0 55 18q4 2 8.5 2t4.5 -4q0 -11 -8 -19q-14 -15 -47 -32t-76 -17q-47 0 -75 23t-28 62q0 33 34.5 70t100.5 71q-17 1 -30 1l-28 -1
q-28 -1 -61 -1.5t-45 -0.5q-21 0 -21 10t15 10q2 0 12 1t17 2q26 5 29 47q6 43 6 182v152q0 158 -3 185q-3 38 -30 42q-7 2 -28 4q-17 1 -17 10q0 10 20 10q15 0 48 -1t60 -1l26 -1q1 0 32.5 0.5t68 1.5t51.5 1q18 0 18 -10q0 -8 -18 -10q-11 -1 -20 -3q-18 -4 -25.5 -13
t-10.5 -31q-3 -28 -3 -184z" />
    <glyph glyph-name="Idotaccent" unicode="&#x130;" horiz-adv-x="489" 
d="M156 287v176q0 184 -3 216q-3 44 -35 50q-8 2 -30 4q-19 0 -19 11q0 9 22 9q18 0 52.5 -0.5t63 -1.5t30.5 -1q1 0 71.5 1.5t91.5 1.5q22 0 22 -10t-19 -10q-27 -3 -29 -3q-20 -4 -28.5 -15.5t-9.5 -38.5q-3 -32 -3 -213v-176q0 -161 5 -214q3 -43 38 -51q11 -2 44 -5
q21 0 21 -10t-21 -10q-30 0 -73.5 0.5t-76 1.5t-34.5 1q-1 0 -30.5 -1t-64 -1.5t-49.5 -0.5q-24 0 -24 10t20 10q20 2 31 4q26 4 31 54q6 63 6 212zM243 825q-27 0 -43.5 18t-16.5 42t17 43.5t43 19.5t44 -17.5t18 -43.5q0 -24 -17.5 -43t-44.5 -19z" />
    <glyph glyph-name="dotlessi" unicode="&#x131;" horiz-adv-x="449" 
d="M140 249v152q0 158 -3 185q-3 38 -30 42q-7 2 -28 4q-17 1 -17 10q0 10 20 10q15 0 48 -1t60 -1l26 -1q1 0 32.5 0.5t68 1.5t51.5 1q18 0 18 -10q0 -8 -18 -10q-11 -1 -20 -3q-18 -4 -25.5 -13t-10.5 -31q-3 -28 -3 -184v-152q0 -139 5 -185q3 -36 35 -43q2 -1 37 -4
q19 0 19 -11q0 -9 -19 -9q-27 0 -68.5 0.5t-71.5 1.5l-30 1l-28 -1q-28 -1 -61 -1.5t-45 -0.5q-21 0 -21 10t15 10q2 0 12 1t17 2q26 5 29 47q6 43 6 182z" />
    <glyph glyph-name="Jcircumflex" unicode="&#x134;" horiz-adv-x="463" 
d="M337 463v-191q0 -203 -25 -274q-47 -129 -203 -221q-20 -12 -52 -26q-10 -6 -22 -6q-9 0 -9 8t23 22q29 18 53 45q39 43 48.5 112.5t9.5 274.5v256q0 183 -3 215q-3 46 -41 51q-7 1 -40 4q-19 0 -19 11q0 9 22 9q19 0 57.5 -0.5t70.5 -1.5t34 -1l71 2q72 1 94 1
q23 0 23 -9t-20 -11q-27 -3 -29 -3q-23 -4 -30.5 -18t-9.5 -42q-3 -48 -3 -207zM250 974q7 0 23 -10l68 -46.5l65 -44.5q19 -14 19 -19t-7 -11l-50 -36q-9 -6 -18 3q-38 33 -106 75q-13 9 -19 9q-5 0 -20 -7q-32 -15 -130 -72q-16 -10 -25 -10q-10 0 -4 11q2 5 9 11
q6 5 84 65.5t87 68.5q16 13 24 13z" />
    <glyph glyph-name="jcircumflex" unicode="&#x135;" horiz-adv-x="429" 
d="M314 401v-168q0 -171 -22 -230q-40 -111 -190 -195q-22 -13 -46 -23q-12 -5 -20 -5q-9 0 -9 8t18 18q32 19 51 40q32 35 40 95t8 245v215q0 144 -3 186q-1 22 -10.5 30.5t-30.5 10.5q-9 1 -18 2.5t-12 1.5q-18 2 -18 10q0 10 20 10q10 0 29 -0.5l38.5 -1t37.5 -0.5h31
l12 -1q1 0 34 0.5t71 1.5t52 1q19 0 19 -9t-17 -11q-2 0 -10.5 -1t-15.5 -2q-20 -3 -27.5 -15.5t-8.5 -34.5q-3 -42 -3 -178zM233 875q8 0 24 -11q91 -60 122 -83q19 -12 19 -19q0 -4 -6 -10l-51 -34q-9 -6 -18 2q-33 30 -95 68q-11 8 -19 8t-21 -6q-58 -28 -119 -65
q-16 -9 -25 -9q-10 0 -5 11q3 5 10 11l161 123q15 14 23 14z" />
    <glyph glyph-name="uni0136" unicode="&#x136;" horiz-adv-x="843" 
d="M329 463v-60q87 81 216 226q52 60 52 82q0 9 -5.5 13.5t-22.5 8.5q-17 2 -17 10q0 9 16 9q21 0 48.5 -1t57.5 -1q35 0 89 1t55 1q21 0 21 -9t-18 -10q-26 -3 -36 -6q-33 -7 -59.5 -26t-69.5 -60q-85 -81 -185 -189q29 -45 124 -161t147 -170q77 -79 105 -91
q23 -10 46 -13q21 -1 21 -11q0 -9 -20 -9h-98q-100 0 -145.5 13.5t-83.5 55.5q-43 46 -113.5 137.5t-124.5 171.5v-88q0 -159 5 -211q4 -49 43 -55l43 -4q17 0 17 -10t-19 -10q-29 0 -72.5 0.5t-75.5 1.5t-34 1q-1 0 -32.5 -1t-68 -1.5t-51.5 -0.5q-20 0 -20 10t18 10
q3 0 9.5 0.5t11.5 1t10 1.5q21 3 27.5 17t9.5 41q6 63 6 209v176q0 183 -3 215q-3 44 -37 51q-2 0 -38 4q-21 0 -21 11q0 9 27 9q19 0 55 -0.5t65.5 -1.5t31.5 -1q1 0 73 1.5t93 1.5t21 -9q0 -10 -18 -11q-2 0 -11.5 -1l-18.5 -2q-24 -3 -32.5 -17.5t-10.5 -42.5
q-3 -48 -3 -207zM494 -58q19 0 32 -21t13 -50q0 -52 -38 -99.5t-100 -79.5q-32 -15 -32 0q0 6 10 13q62 45 62 92q0 37 -49 65q-13 6 -13 14q1 10 45.5 38t69.5 28z" />
    <glyph glyph-name="uni0137" unicode="&#x137;" horiz-adv-x="772" 
d="M307 401v-51q95 88 193 196q45 48 45 66q0 9 -4.5 13t-20.5 7q-17 2 -17 10q0 9 16 9q19 0 43 -1t53 -1q33 0 83 1l50 1q20 0 20 -9q0 -8 -17 -10q-24 -4 -29 -5q-23 -4 -44.5 -15.5t-34 -21.5t-41.5 -36q-59 -55 -159 -159q23 -37 106.5 -137.5t134.5 -154.5
q54 -57 83 -72q16 -9 45 -14q18 -1 18 -11q0 -9 -18 -9h-90q-90 0 -133 11.5t-78 45.5q-71 70 -204 267v-72q0 -146 3 -182q4 -42 41 -47q7 -1 21.5 -2t16.5 -1q15 -1 15 -10q0 -10 -17 -10q-27 0 -68.5 0.5t-72.5 1.5l-30 1l-29 -1q-29 -1 -63 -1.5t-47 -0.5q-18 0 -18 9
t18 11l20 3q21 3 28 15t9 35q6 54 6 179v152q0 159 -3 187q-3 34 -34 40q-15 2 -33 4t-18 11t23 9q15 0 49.5 -1t63.5 -1l28 -1q1 0 32.5 0.5t67.5 1.5t50 1q19 0 19 -10q0 -9 -17 -10q-3 -1 -11.5 -2t-10.5 -1q-16 -2 -24 -10t-10 -17t-3 -25q-2 -28 -2 -176zM450 -52
q19 0 33 -22t14 -53q0 -55 -40.5 -105t-105.5 -84q-33 -16 -33 0q0 7 11 14q66 47 66 97q0 38 -53 67q-13 7 -13 16q0 11 47.5 40.5t73.5 29.5z" />
    <glyph glyph-name="kgreenlandic" unicode="&#x138;" horiz-adv-x="772" 
d="M307 401v-51q95 88 193 196q45 48 45 66q0 9 -4.5 13t-20.5 7q-17 2 -17 10q0 9 16 9q19 0 43 -1t53 -1q33 0 83 1l50 1q20 0 20 -9q0 -8 -17 -10q-24 -4 -29 -5q-23 -4 -44.5 -15.5t-34 -21.5t-41.5 -36q-59 -55 -159 -159q23 -37 106.5 -137.5t134.5 -154.5
q54 -57 83 -72q16 -9 45 -14q18 -1 18 -11q0 -9 -18 -9h-90q-90 0 -133 11.5t-78 45.5q-71 70 -204 267v-72q0 -146 3 -182q4 -42 41 -47q7 -1 21.5 -2t16.5 -1q15 -1 15 -10q0 -10 -17 -10q-27 0 -68.5 0.5t-72.5 1.5l-30 1l-29 -1q-29 -1 -63 -1.5t-47 -0.5q-18 0 -18 9
t18 11l20 3q21 3 28 15t9 35q6 54 6 179v152q0 159 -3 187q-3 34 -34 40q-15 2 -33 4t-18 11t23 9q15 0 49.5 -1t63.5 -1l28 -1q1 0 32.5 0.5t67.5 1.5t50 1q19 0 19 -10q0 -9 -17 -10q-3 -1 -11.5 -2t-10.5 -1q-16 -2 -24 -10t-10 -17t-3 -25q-2 -28 -2 -176z" />
    <glyph glyph-name="Lacute" unicode="&#x139;" horiz-adv-x="671" 
d="M333 453v-167v-32.5v-30.5v-27t0.5 -25.5t1 -21.5t1.5 -20t2.5 -15.5t3.5 -13t5 -8.5q11 -15 33 -19.5t83 -4.5q85 0 115 16q36 17 52 84q5 19 13 19t8 -19q0 -20 -7 -73.5t-14 -73.5q-6 -19 -15.5 -23t-40.5 -4q-73 0 -180.5 3t-156.5 3q-23 0 -75 -1.5t-81 -1.5
q-22 0 -22 11q0 9 20 9q22 2 34 4q26 4 32 22t8 82q3 60 3 162v176q0 165 -3 213q-3 43 -34 52q-9 3 -39 5q-21 0 -21 10t30 10q31 0 81 -1.5t67 -1.5q1 0 74.5 1.5t94.5 1.5q24 0 24 -9q0 -11 -24 -11q-29 -3 -34 -4q-19 -4 -26.5 -17.5t-9.5 -41.5q-3 -48 -3 -217z
M406 973q33 -30 48 -72q5 -16 -6 -16q-19 0 -58 -12q-95 -31 -150 -58q-16 -8 -22 -8q-9 0 -9 6t10 19q26 32 70 75.5t65 59.5q20 17 32 17q9 0 20 -11z" />
    <glyph glyph-name="lacute" unicode="&#x13a;" horiz-adv-x="620" 
d="M309 390v-142v-33.5v-32v-27.5t0.5 -25t2 -19t3.5 -16.5t5 -10.5q10 -13 29 -17t75 -4q71 0 99 10q41 16 55 79q4 18 13 18q8 0 8 -18t-8 -67t-14 -67q-6 -16 -13.5 -19.5t-33.5 -3.5q-72 0 -171 2.5t-142 2.5q-20 0 -65.5 -1.5t-72.5 -1.5q-21 0 -21 11q0 9 17 9
q5 1 11 1.5t10 0.5q27 4 34 21.5t9 78.5q0 15 0.5 59.5t0.5 70.5v152q0 140 -3 182q-3 36 -31 44q-14 4 -33 5q-18 2 -18 10q0 10 25 10q29 0 74 -1.5t62 -1.5q1 0 33 0.5t69 1.5t51 1q20 0 20 -9q0 -11 -16 -11q-17 -2 -27 -4q-18 -3 -25 -14.5t-9 -36.5q-3 -42 -3 -187z
M377 881q35 -38 47 -71q5 -16 -5 -16q-21 0 -58 -13q-81 -25 -148 -58q-14 -7 -22 -9q-9 2 -9 7q0 6 10 18q27 33 69.5 76.5t62.5 58.5q21 18 32 18q6 1 21 -11z" />
    <glyph glyph-name="uni013B" unicode="&#x13b;" horiz-adv-x="671" 
d="M333 453v-167v-32.5v-30.5v-27t0.5 -25.5t1 -21.5t1.5 -20t2.5 -15.5t3.5 -13t5 -8.5q11 -15 33 -19.5t83 -4.5q85 0 115 16q36 17 52 84q5 19 13 19t8 -19q0 -20 -7 -73.5t-14 -73.5q-6 -19 -15.5 -23t-40.5 -4q-73 0 -180.5 3t-156.5 3q-23 0 -75 -1.5t-81 -1.5
q-22 0 -22 11q0 9 20 9q22 2 34 4q26 4 32 22t8 82q3 60 3 162v176q0 165 -3 213q-3 43 -34 52q-9 3 -39 5q-21 0 -21 10t30 10q31 0 81 -1.5t67 -1.5q1 0 74.5 1.5t94.5 1.5q24 0 24 -9q0 -11 -24 -11q-29 -3 -34 -4q-19 -4 -26.5 -17.5t-9.5 -41.5q-3 -48 -3 -217z
M287 -132q1 10 45.5 38t69.5 28q19 0 32 -21t13 -50q0 -52 -38 -99.5t-100 -79.5q-32 -15 -32 0q0 6 11 13q61 44 61 92q0 37 -49 65q-13 6 -13 14z" />
    <glyph glyph-name="uni013C" unicode="&#x13c;" horiz-adv-x="620" 
d="M309 390v-142v-33.5v-32v-27.5t0.5 -25t2 -19t3.5 -16.5t5 -10.5q10 -13 29 -17t75 -4q71 0 99 10q41 16 55 79q4 18 13 18q8 0 8 -18t-8 -67t-14 -67q-6 -16 -13.5 -19.5t-33.5 -3.5q-72 0 -171 2.5t-142 2.5q-20 0 -65.5 -1.5t-72.5 -1.5q-21 0 -21 11q0 9 17 9
q5 1 11 1.5t10 0.5q27 4 34 21.5t9 78.5q0 15 0.5 59.5t0.5 70.5v152q0 140 -3 182q-3 36 -31 44q-14 4 -33 5q-18 2 -18 10q0 10 25 10q29 0 74 -1.5t62 -1.5q1 0 33 0.5t69 1.5t51 1q20 0 20 -9q0 -11 -16 -11q-17 -2 -27 -4q-18 -3 -25 -14.5t-9 -36.5q-3 -42 -3 -187z
M236 -130q1 11 48 40.5t73 29.5q20 0 34 -22t14 -53q0 -55 -40.5 -105t-105.5 -84q-34 -16 -34 0q0 7 11 14q66 47 66 97q0 38 -53 67q-13 7 -13 16z" />
    <glyph glyph-name="Lcaron" unicode="&#x13d;" horiz-adv-x="673" 
d="M333 453v-167v-32.5v-30.5v-27t0.5 -25.5t1 -21.5t1.5 -20t2.5 -15.5t3.5 -13t5 -8.5q11 -15 33 -19.5t83 -4.5q85 0 115 16q36 17 52 84q5 19 13 19t8 -19q0 -20 -7 -73.5t-14 -73.5q-6 -19 -15.5 -23t-40.5 -4q-73 0 -180.5 3t-156.5 3q-23 0 -75 -1.5t-81 -1.5
q-22 0 -22 11q0 9 20 9q22 2 34 4q26 4 32 22t8 82q3 60 3 162v176q0 165 -3 213q-3 43 -34 52q-9 3 -39 5q-21 0 -21 10t30 10q31 0 81 -1.5t67 -1.5q1 0 74.5 1.5t94.5 1.5q24 0 24 -9q0 -11 -24 -11q-29 -3 -34 -4q-19 -4 -26.5 -17.5t-9.5 -41.5q-3 -48 -3 -217z
M603 514q-9 -60 -22 -60q-10 0 -14 27q-22 191 -34 235q-2 8 5 13q56 38 84 38q11 0 11 -10q-1 -30 -11.5 -116.5t-18.5 -126.5z" />
    <glyph glyph-name="lcaron" unicode="&#x13e;" horiz-adv-x="616" 
d="M553 416q-8 -59 -19 -59q-12 0 -15 29q-13 156 -34 223q-2 8 4 13q19 15 45 28.5t37 13.5q12 0 12 -10q-2 -78 -30 -238zM307 390v-142v-33.5v-32v-27.5t0.5 -25t2 -19t3.5 -16.5t5 -10.5q10 -13 29 -17t75 -4q71 0 99 10q41 16 55 79q4 18 13 18q8 0 8 -18t-8 -67
t-14 -67q-6 -16 -13.5 -19.5t-33.5 -3.5q-72 0 -171 2.5t-142 2.5q-20 0 -65.5 -1.5t-72.5 -1.5q-21 0 -21 11q0 9 17 9q5 1 11 1.5t10 0.5q27 4 34 21.5t9 78.5q0 15 0.5 59.5t0.5 70.5v152q0 140 -3 182q-3 36 -31 44q-14 4 -33 5q-18 2 -18 10q0 10 25 10q29 0 74 -1.5
t62 -1.5q1 0 33 0.5t69 1.5t51 1q20 0 20 -9q0 -11 -16 -11q-17 -2 -27 -4q-18 -3 -25 -14.5t-9 -36.5q-3 -42 -3 -187z" />
    <glyph glyph-name="Ldot" unicode="&#x13f;" horiz-adv-x="671" 
d="M333 453v-167v-32.5v-30.5v-27t0.5 -25.5t1 -21.5t1.5 -20t2.5 -15.5t3.5 -13t5 -8.5q11 -15 33 -19.5t83 -4.5q85 0 115 16q36 17 52 84q5 19 13 19t8 -19q0 -20 -7 -73.5t-14 -73.5q-6 -19 -15.5 -23t-40.5 -4q-73 0 -180.5 3t-156.5 3q-23 0 -75 -1.5t-81 -1.5
q-22 0 -22 11q0 9 20 9q22 2 34 4q26 4 32 22t8 82q3 60 3 162v176q0 165 -3 213q-3 43 -34 52q-9 3 -39 5q-21 0 -21 10t30 10q31 0 81 -1.5t67 -1.5q1 0 74.5 1.5t94.5 1.5q24 0 24 -9q0 -11 -24 -11q-29 -3 -34 -4q-19 -4 -26.5 -17.5t-9.5 -41.5q-3 -48 -3 -217z
M507 505q44 0 134 -24q23 -8 23 -17q0 -8 -6 -18q-34 -57 -106 -116q-20 -14 -25 -14q-6 0 -6 6q0 4 6 22q14 35 14 77q0 22 -7.5 37t-12.5 18.5t-16 9.5q-11 5 -11 12t13 7z" />
    <glyph glyph-name="ldot" unicode="&#x140;" horiz-adv-x="620" 
d="M309 390v-142v-33.5v-32v-27.5t0.5 -25t2 -19t3.5 -16.5t5 -10.5q10 -13 29 -17t75 -4q71 0 99 10q41 16 55 79q4 18 13 18q8 0 8 -18t-8 -67t-14 -67q-6 -16 -13.5 -19.5t-33.5 -3.5q-72 0 -171 2.5t-142 2.5q-20 0 -65.5 -1.5t-72.5 -1.5q-21 0 -21 11q0 9 17 9
q5 1 11 1.5t10 0.5q27 4 34 21.5t9 78.5q0 15 0.5 59.5t0.5 70.5v152q0 140 -3 182q-3 36 -31 44q-14 4 -33 5q-18 2 -18 10q0 10 25 10q29 0 74 -1.5t62 -1.5q1 0 33 0.5t69 1.5t51 1q20 0 20 -9q0 -11 -16 -11q-17 -2 -27 -4q-18 -3 -25 -14.5t-9 -36.5q-3 -42 -3 -187z
M450 469q50 0 134 -24q22 -7 22 -16q0 -11 -5 -18q-32 -55 -106 -116q-19 -14 -26 -14q-5 0 -5 6q0 5 6 21q14 35 14 78q0 46 -36 65q-11 5 -11 11q0 7 13 7z" />
    <glyph glyph-name="Lslash" unicode="&#x141;" horiz-adv-x="681" 
d="M343 372v-86v-32.5v-30.5v-27t0.5 -25.5t1 -21.5t1.5 -20t2.5 -15.5t3.5 -13t5 -8.5q11 -15 33 -19.5t83 -4.5q85 0 115 16q36 17 52 84q5 19 13 19t8 -19q0 -20 -7 -73.5t-14 -73.5q-6 -19 -15.5 -23t-40.5 -4q-73 0 -180.5 3t-156.5 3q-23 0 -75 -1.5t-81 -1.5
q-22 0 -22 11q0 9 20 9q22 2 34 4q26 4 32 22t8 82q3 60 3 162l-72 -34q-8 -3 -11 4l-14 40q-5 5 3 9l94 44v113q0 165 -3 213q-3 43 -34 52q-9 3 -39 5q-21 0 -21 10t30 10q31 0 81 -1.5t67 -1.5q1 0 74.5 1.5t94.5 1.5q24 0 24 -9q0 -11 -24 -11q-29 -3 -34 -4
q-19 -4 -26.5 -17.5t-9.5 -41.5q-3 -48 -3 -217v-20l142 67q7 4 12 -3l15 -33q4 -9 -7 -15z" />
    <glyph glyph-name="lslash" unicode="&#x142;" horiz-adv-x="629" 
d="M318 323v-75v-33.5v-32v-27.5t0.5 -25t2 -19t3.5 -16.5t5 -10.5q10 -13 28.5 -17t75.5 -4q71 0 99 10q40 16 54 79q5 18 14 18q8 0 8 -18t-8 -67t-14 -67q-6 -16 -13.5 -19.5t-33.5 -3.5q-73 0 -172 2.5t-141 2.5q-21 0 -66.5 -1.5t-71.5 -1.5q-21 0 -21 11q0 9 17 9
q4 1 21 2q26 4 33 21t9 79q2 66 2 127l-62 -28q-6 -3 -10 3l-13 35q-4 4 3 8l82 37v100q0 140 -3 182q-3 36 -31 44q-14 4 -33 5q-19 2 -19 10q0 10 26 10q29 0 74 -1.5t62 -1.5q1 0 32.5 0.5t68.5 1.5t52 1q20 0 20 -9q0 -11 -17 -11q-17 -2 -26 -4q-18 -3 -25 -14.5
t-9 -36.5q-3 -42 -3 -187v-13l128 57q7 3 11 -3l12 -30q3 -9 -7 -13z" />
    <glyph glyph-name="Nacute" unicode="&#x143;" horiz-adv-x="943" 
d="M129 144q2 90 4 298t5 278q2 48 17 48q9 0 39 -24q14 -12 323 -295l198 -185l-6 375q-2 46 -10.5 65t-36.5 24q-13 3 -44 5q-18 0 -18 10t20 10t72.5 -1.5t72.5 -1.5q9 0 50 1.5t64 1.5q22 0 22 -9q0 -11 -17 -11q-20 -2 -25 -3q-25 -3 -34.5 -20t-11.5 -63
q-4 -89 -6 -189.5t-3.5 -223t-2.5 -189.5q0 -62 -20 -62t-112 81l-216 194l-229 216l10 -341q2 -58 8 -80t26 -29q7 -2 53 -7q20 -1 20 -10q0 -10 -24 -10q-18 0 -58.5 1.5t-70.5 1.5q-10 0 -62 -1.5t-74 -1.5t-22 10t19 10q2 0 14.5 1t18.5 2q28 4 36.5 27.5t10.5 96.5z
M592 964q32 -30 48 -73q5 -15 -6 -15q-20 0 -57 -13q-95 -31 -151 -58q-18 -8 -22 -8q-8 0 -8 7q0 4 9 18q28 33 72 76.5t63 58.5q22 18 32 18q9 0 20 -11z" />
    <glyph glyph-name="nacute" unicode="&#x144;" horiz-adv-x="848" 
d="M115 124q3 91 5 265t4 231q2 44 17 44q9 0 34 -19q85 -67 292 -250l172 -150l-5 306q-2 39 -10.5 56t-36.5 21q-13 2 -36 4q-16 1 -16 10q0 10 17 10q16 0 65 -1.5t70 -1.5q9 0 47 1.5t58 1.5q19 0 19 -9q0 -10 -15 -11q-18 -2 -20 -2q-23 -3 -32 -17.5t-11 -54.5
q-10 -209 -12 -514q0 -36 -4.5 -47.5t-14.5 -11.5q-19 0 -117 80l-176 152l-202 179l9 -281q2 -50 7 -68.5t24 -23.5t45 -6q19 -3 19 -10q0 -10 -22 -10q-11 0 -46 1l-69 2q-12 0 -62 -1.5t-66 -1.5q-20 0 -20 10q0 9 16 10q5 1 12.5 1.5t12.5 0.5q27 4 36.5 24t11.5 81z
M553 871q34 -37 47 -71q5 -17 -5 -17q-13 2 -58 -12q-89 -29 -148 -58q-15 -7 -23 -9q-8 2 -8 7t9 18q28 33 70.5 76t62.5 59q21 17 32 17q7 1 21 -10z" />
    <glyph glyph-name="uni0145" unicode="&#x145;" horiz-adv-x="943" 
d="M129 144q2 90 4 298t5 278q2 48 17 48q9 0 39 -24q14 -12 323 -295l198 -185l-6 375q-2 46 -10.5 65t-36.5 24q-13 3 -44 5q-18 0 -18 10t20 10t72.5 -1.5t72.5 -1.5q9 0 50 1.5t64 1.5q22 0 22 -9q0 -11 -17 -11q-20 -2 -25 -3q-25 -3 -34.5 -20t-11.5 -63
q-4 -89 -6 -189.5t-3.5 -223t-2.5 -189.5q0 -62 -20 -62t-112 81l-216 194l-229 216l10 -341q2 -58 8 -80t26 -29q7 -2 53 -7q20 -1 20 -10q0 -10 -24 -10q-18 0 -58.5 1.5t-70.5 1.5q-10 0 -62 -1.5t-74 -1.5t-22 10t19 10q2 0 14.5 1t18.5 2q28 4 36.5 27.5t10.5 96.5z
M391 -107q0 10 45 38t69 28q19 0 32.5 -21t13.5 -50q0 -52 -38.5 -100t-99.5 -79q-11 -6 -21 -7t-11 6q0 6 10 14q62 44 62 92q0 35 -50 64q-12 6 -12 15z" />
    <glyph glyph-name="uni0146" unicode="&#x146;" horiz-adv-x="848" 
d="M115 124q3 91 5 265t4 231q2 44 17 44q9 0 34 -19q85 -67 292 -250l172 -150l-5 306q-2 39 -10.5 56t-36.5 21q-13 2 -36 4q-16 1 -16 10q0 10 17 10q16 0 65 -1.5t70 -1.5q9 0 47 1.5t58 1.5q19 0 19 -9q0 -10 -15 -11q-18 -2 -20 -2q-23 -3 -32 -17.5t-11 -54.5
q-10 -209 -12 -514q0 -36 -4.5 -47.5t-14.5 -11.5q-19 0 -117 80l-176 152l-202 179l9 -281q2 -50 7 -68.5t24 -23.5t45 -6q19 -3 19 -10q0 -10 -22 -10q-11 0 -46 1l-69 2q-12 0 -62 -1.5t-66 -1.5q-20 0 -20 10q0 9 16 10q5 1 12.5 1.5t12.5 0.5q27 4 36.5 24t11.5 81z
M334 -115q0 11 47 40.5t73 29.5q20 0 34 -22t14 -53q0 -55 -40.5 -105t-105.5 -84q-33 -15 -33 0q0 7 11 14q65 46 65 97q0 37 -52 68q-13 5 -13 15z" />
    <glyph glyph-name="Ncaron" unicode="&#x147;" horiz-adv-x="943" 
d="M129 144q2 90 4 298t5 278q2 48 17 48q9 0 39 -24q14 -12 323 -295l198 -185l-6 375q-2 46 -10.5 65t-36.5 24q-13 3 -44 5q-18 0 -18 10t20 10t72.5 -1.5t72.5 -1.5q9 0 50 1.5t64 1.5q22 0 22 -9q0 -11 -17 -11q-20 -2 -25 -3q-25 -3 -34.5 -20t-11.5 -63
q-4 -89 -6 -189.5t-3.5 -223t-2.5 -189.5q0 -62 -20 -62t-112 81l-216 194l-229 216l10 -341q2 -58 8 -80t26 -29q7 -2 53 -7q20 -1 20 -10q0 -10 -24 -10q-18 0 -58.5 1.5t-70.5 1.5q-10 0 -62 -1.5t-74 -1.5t-22 10t19 10q2 0 14.5 1t18.5 2q28 4 36.5 27.5t10.5 96.5z
M467 797q-7 0 -23 11l-133 91q-19 13 -19 19q0 3 7 10l49 33q11 7 19 -1q37 -34 106 -76q13 -9 19 -9t20 7q32 15 130 72q16 10 26 10q8 0 3 -11q-3 -5 -10 -11q-5 -6 -42.5 -34.5l-80.5 -61l-47 -35.5q-15 -14 -24 -14z" />
    <glyph glyph-name="ncaron" unicode="&#x148;" horiz-adv-x="848" 
d="M115 124q3 91 5 265t4 231q2 44 17 44q9 0 34 -19q85 -67 292 -250l172 -150l-5 306q-2 39 -10.5 56t-36.5 21q-13 2 -36 4q-16 1 -16 10q0 10 17 10q16 0 65 -1.5t70 -1.5q9 0 47 1.5t58 1.5q19 0 19 -9q0 -10 -15 -11q-18 -2 -20 -2q-23 -3 -32 -17.5t-11 -54.5
q-10 -209 -12 -514q0 -36 -4.5 -47.5t-14.5 -11.5q-19 0 -117 80l-176 152l-202 179l9 -281q2 -50 7 -68.5t24 -23.5t45 -6q19 -3 19 -10q0 -10 -22 -10q-11 0 -46 1l-69 2q-12 0 -62 -1.5t-66 -1.5q-20 0 -20 10q0 9 16 10q5 1 12.5 1.5t12.5 0.5q27 4 36.5 24t11.5 81z
M438 707q-7 0 -24 11l-125 85q-19 14 -19 19q0 4 7 10l50 34q10 7 19 -2q37 -33 98 -70q10 -8 19 -8q3 0 20 6q47 22 119 64q16 10 26 10t3 -12q-3 -5 -9 -10q-8 -8 -81.5 -63.5t-78.5 -59.5q-17 -14 -24 -14z" />
    <glyph glyph-name="Omacron" unicode="&#x14c;" horiz-adv-x="951" 
d="M476 -17q-106 0 -189.5 35.5t-132.5 93t-74 124.5t-25 136q0 77 26 146.5t77 125.5t135 89.5t190 33.5q185 0 299 -108t114 -265q0 -179 -114 -295t-306 -116zM506 47q23 0 44 4.5t49 23t48 49t34.5 89t14.5 137.5q0 89 -23.5 166.5t-81 133t-141.5 55.5
q-195 0 -195 -288q0 -98 26 -180t84.5 -136t140.5 -54zM625 857h-319q-5 0 -5 8q4 38 12 52q1 6 9 6h321q8 0 6 -8q-4 -36 -11 -50q-4 -8 -13 -8z" />
    <glyph glyph-name="omacron" unicode="&#x14d;" horiz-adv-x="862" 
d="M433 -15q-95 0 -171 30.5t-120 80.5t-67 107.5t-23 117.5q0 69 24 130t70.5 109t122 76t170.5 28q165 0 268 -95t103 -228q0 -156 -102 -256t-275 -100zM457 45q161 0 161 256q0 54 -10.5 104t-33 97t-65.5 75.5t-101 28.5q-164 0 -164 -242q0 -84 21.5 -154t71 -117.5
t120.5 -47.5zM567 753h-298q-5 0 -5 8q4 38 11 49q3 7 9 7h301q7 0 7 -8q-3 -27 -11 -48q-4 -8 -14 -8z" />
    <glyph glyph-name="Ohungarumlaut" unicode="&#x150;" horiz-adv-x="951" 
d="M476 -17q-106 0 -189.5 35.5t-132.5 93t-74 124.5t-25 136q0 77 26 146.5t77 125.5t135 89.5t190 33.5q185 0 299 -108t114 -265q0 -179 -114 -295t-306 -116zM506 47q23 0 44 4.5t49 23t48 49t34.5 89t14.5 137.5q0 89 -23.5 166.5t-81 133t-141.5 55.5
q-195 0 -195 -288q0 -98 26 -180t84.5 -136t140.5 -54zM404 965q19 26 26 26q12 0 19 -5q28 -11 75 -40q4 -3 6 -6t1 -4.5t-3 -2.5q-29 -12 -40 -18q-87 -50 -133 -90q-11 -12 -21 -12q-11 0 -6 12q24 58 76 140zM636 967q18 24 26 24q11 0 21 -6q43 -19 74 -45
q11 -11 1 -13q-10 -3 -40 -15q-89 -40 -143 -87q-17 -12 -23 -12q-7 0 -4 11q3 10 35.5 63.5t52.5 79.5z" />
    <glyph glyph-name="ohungarumlaut" unicode="&#x151;" horiz-adv-x="862" 
d="M433 -15q-95 0 -171 30.5t-120 80.5t-67 107.5t-23 117.5q0 69 24 130t70.5 109t122 76t170.5 28q165 0 268 -95t103 -228q0 -156 -102 -256t-275 -100zM457 45q161 0 161 256q0 54 -10.5 104t-33 97t-65.5 75.5t-101 28.5q-164 0 -164 -242q0 -84 21.5 -154t71 -117.5
t120.5 -47.5zM347 866q18 27 25 27q12 0 19 -5q45 -21 75 -41q5 -2 6.5 -5t0.5 -4.5t-3 -2.5q-1 -1 -14.5 -6.5t-25.5 -11.5q-89 -52 -133 -91q-10 -12 -21 -12q-4 0 -5.5 4t0.5 9q10 23 36.5 71.5t39.5 67.5zM579 869q19 24 25 24q9 0 21 -6q51 -25 74 -45q11 -11 1 -13
q-14 -5 -39 -15q-86 -37 -144 -87q-17 -13 -23 -13q-7 0 -4 12q4 11 36 64t53 79z" />
    <glyph glyph-name="OE" unicode="&#x152;" horiz-adv-x="1208" 
d="M254 420q0 -185 64.5 -279.5t170.5 -94.5q53 0 92 27t59.5 73t30 95.5t9.5 103.5q0 162 -55 260.5t-177 98.5q-37 0 -68.5 -12.5t-61.5 -42.5t-47 -88.5t-17 -140.5zM778 0q-18 0 -50 -1.5t-39 -1.5t-7 7q0 19 2 51q-34 -31 -92.5 -51.5t-130.5 -20.5q-84 0 -153.5 24
t-115.5 63t-77.5 90.5t-45.5 105.5t-14 108q0 170 110.5 281.5t292.5 111.5q148 0 229 -77q0 8 -0.5 17t-1.5 19.5t-1 17.5q0 9 9 9q5 0 34.5 -1.5t33.5 -1.5q11 0 143 0.5t139 0.5q32 0 54 4q12 4 16 4q6 0 6 -9q0 -2 -1 -6.5t-2.5 -15t-2.5 -22.5q-2 -20 -7 -107
q0 -14 -10 -14q-8 0 -10 14q-3 28 -6 39q-5 18 -18 25.5t-47 10.5q-55 5 -150 5q-8 0 -8 -10v-220q0 -12 8 -12q48 -2 144 1q38 2 52 6t22 17q7 13 14 13q6 0 6 -12q0 -4 -3.5 -33.5t-4.5 -51.5q-2 -46 -2 -83q0 -19 -9 -19q-8 0 -10 16q-2 14 -4 23q-3 23 -17 35t-49 14
q-58 4 -141 4q-6 0 -6 -13v-69v-38v-52v-41q1 -54 22.5 -70t102.5 -16q63 0 94 12q20 8 31 26t18 53q3 18 11 18q9 0 9 -22q0 -27 -5.5 -72.5t-9.5 -61.5q-5 -19 -14 -23t-38 -4q-75 0 -169 3t-131 3z" />
    <glyph glyph-name="oe" unicode="&#x153;" horiz-adv-x="1103" 
d="M244 366q0 -161 56 -241t148 -80q48 0 82 25t51 65.5t24.5 81.5t7.5 84q0 137 -47.5 221.5t-151.5 84.5q-24 0 -45.5 -5.5t-45 -21.5t-40.5 -41.5t-28 -70t-11 -102.5zM709 0q-17 0 -49 -1.5t-39 -1.5q-6 0 -6 6q0 20 2 38q-26 -23 -79.5 -39.5t-112.5 -16.5
q-95 0 -169 30t-117 80t-65 108t-22 120q0 151 104 246t266 95q127 0 198 -58q0 10 -2 38q0 8 8 8q22 0 49.5 -1.5t45.5 -1.5q8 0 115 0.5t114 0.5q32 0 51 4q9 3 14 3q8 0 6 -9q0 -3 -2.5 -16.5t-3.5 -25.5q0 -10 -2 -37.5l-4 -56.5q0 -14 -10 -14q-9 0 -10 12q-2 22 -5 32
q-4 16 -16 24.5t-42 11.5q-66 4 -134 4q-8 0 -8 -9v-183q0 -8 8 -8q89 0 123 1q38 2 51.5 5.5t20.5 16.5q5 11 12 11t7 -11q0 -5 -3 -34t-4 -46q-1 -19 -1 -75q0 -15 -10 -15q-7 0 -10 14q-1 3 -1.5 8.5t-0.5 8.5q-3 22 -16 33t-45 13q-43 3 -125 3q-6 0 -6 -7v-63v-105
q1 -47 20.5 -61t93.5 -14q56 0 83 10q18 7 27.5 23.5t15.5 47.5q3 15 12 15t9 -18q0 -65 -14 -125q-5 -16 -12.5 -19.5t-33.5 -3.5q-72 0 -153 2.5t-123 2.5z" />
    <glyph glyph-name="Racute" unicode="&#x154;" horiz-adv-x="810" 
d="M156 287v176q0 111 -3 207q-1 30 -10 42.5t-28 16.5l-14.5 2t-15 1.5t-10.5 0.5q-18 1 -18 11q0 9 22 9q25 0 87.5 -1.5t65.5 -1.5q6 0 70.5 1.5t90.5 1.5q144 0 204 -34q40 -21 65.5 -60.5t25.5 -92.5q0 -118 -134 -201q140 -202 195 -265q39 -43 61.5 -60t43.5 -20
q5 -1 9 -1.5t8.5 -1t7.5 -0.5q17 0 17 -10t-20 -10h-90q-132 0 -182 33q-41 24 -103 125l-37.5 62.5l-30.5 51.5t-19 30q-4 6 -12 6h-66q-8 0 -8 -8v-51q0 -126 5 -168q4 -47 39 -55q8 -2 45 -6q18 -1 18 -11q0 -9 -21 -9q-30 0 -73.5 0.5t-76 1.5t-33.5 1q-3 0 -63 -1.5
t-80 -1.5t-20 10t18 10q27 3 34 4q27 7 31 57q5 53 5 209zM328 674v-278q0 -10 9 -15q25 -13 77 -13q42 0 63 16q39 30 39 126q0 50 -14.5 87.5t-37.5 56t-45.5 27t-44.5 8.5q-31 0 -40 -4q-6 -3 -6 -11zM523 978q32 -30 48 -73q5 -16 -6 -16q-23 0 -57 -12
q-95 -31 -151 -58q-14 -8 -22 -8t-8 7q0 4 9 18q28 33 72 76.5t63 58.5q23 18 32 18t20 -11z" />
    <glyph glyph-name="racute" unicode="&#x155;" horiz-adv-x="746" 
d="M140 249v152q0 134 -3 176q-3 47 -37 51q-10 2 -20 3l-11 1q-15 0 -15 10t18 10q21 0 79 -1.5t60 -1.5q4 0 66 1.5t88 1.5q136 0 188 -29q85 -43 85 -135q0 -93 -119 -170q104 -159 166 -228q33 -38 53 -52.5t42 -17.5q5 -1 14 -2t10 -1q14 -2 14 -11t-18 -9h-78
q-131 0 -180 31q-37 24 -86 104l-42.5 72t-31.5 53q-2 5 -10 5l-60 1q-7 0 -7 -7v-53q0 -81 4 -133q2 -19 8.5 -30.5t25.5 -16.5q9 -3 41 -6q16 -1 16 -11q0 -9 -17 -9q-27 0 -68.5 0.5t-72 1.5t-31.5 1q-3 0 -59.5 -1.5t-73.5 -1.5q-18 0 -18 11q0 9 16 9q2 0 13.5 1
t17.5 2q25 6 28 50q5 45 5 179zM305 578v-231q0 -7 8 -13q23 -12 74 -12q35 0 55 14q31 23 31 103q0 43 -13.5 75t-34.5 47.5t-41.5 22.5t-39.5 7q-28 0 -33 -3q-6 -3 -6 -10zM493 879q32 -29 47 -71q5 -16 -5 -16q-15 2 -57 -13q-92 -29 -148 -58q-16 -8 -23 -8q-9 0 -9 6
q0 8 10 18q26 32 69 75.5t64 60.5q20 17 32 17q7 2 20 -11z" />
    <glyph glyph-name="uni0156" unicode="&#x156;" horiz-adv-x="810" 
d="M156 287v176q0 111 -3 207q-1 30 -10 42.5t-28 16.5l-14.5 2t-15 1.5t-10.5 0.5q-18 1 -18 11q0 9 22 9q25 0 87.5 -1.5t65.5 -1.5q6 0 70.5 1.5t90.5 1.5q144 0 204 -34q40 -21 65.5 -60.5t25.5 -92.5q0 -118 -134 -201q140 -202 195 -265q39 -43 61.5 -60t43.5 -20
q5 -1 9 -1.5t8.5 -1t7.5 -0.5q17 0 17 -10t-20 -10h-90q-132 0 -182 33q-41 24 -103 125l-37.5 62.5l-30.5 51.5t-19 30q-4 6 -12 6h-66q-8 0 -8 -8v-51q0 -126 5 -168q4 -47 39 -55q8 -2 45 -6q18 -1 18 -11q0 -9 -21 -9q-30 0 -73.5 0.5t-76 1.5t-33.5 1q-3 0 -63 -1.5
t-80 -1.5t-20 10t18 10q27 3 34 4q27 7 31 57q5 53 5 209zM328 674v-278q0 -10 9 -15q25 -13 77 -13q42 0 63 16q39 30 39 126q0 50 -14.5 87.5t-37.5 56t-45.5 27t-44.5 8.5q-31 0 -40 -4q-6 -3 -6 -11zM372 -125q0 10 44.5 38t69.5 28q19 0 32 -21t13 -50q0 -52 -38 -99.5
t-100 -79.5q-10 -6 -20.5 -7t-11.5 7q0 5 11 13q61 43 61 92q0 37 -49 64q-12 5 -12 15z" />
    <glyph glyph-name="uni0157" unicode="&#x157;" horiz-adv-x="746" 
d="M140 249v152q0 134 -3 176q-3 47 -37 51q-10 2 -20 3l-11 1q-15 0 -15 10t18 10q21 0 79 -1.5t60 -1.5q4 0 66 1.5t88 1.5q136 0 188 -29q85 -43 85 -135q0 -93 -119 -170q104 -159 166 -228q33 -38 53 -52.5t42 -17.5q5 -1 14 -2t10 -1q14 -2 14 -11t-18 -9h-78
q-131 0 -180 31q-37 24 -86 104l-42.5 72t-31.5 53q-2 5 -10 5l-60 1q-7 0 -7 -7v-53q0 -81 4 -133q2 -19 8.5 -30.5t25.5 -16.5q9 -3 41 -6q16 -1 16 -11q0 -9 -17 -9q-27 0 -68.5 0.5t-72 1.5t-31.5 1q-3 0 -59.5 -1.5t-73.5 -1.5q-18 0 -18 11q0 9 16 9q2 0 13.5 1
t17.5 2q25 6 28 50q5 45 5 179zM305 578v-231q0 -7 8 -13q23 -12 74 -12q35 0 55 14q31 23 31 103q0 43 -13.5 75t-34.5 47.5t-41.5 22.5t-39.5 7q-28 0 -33 -3q-6 -3 -6 -10zM316 -119q1 11 48 40.5t73 29.5q19 0 33.5 -22.5t14.5 -52.5q0 -55 -40.5 -105t-105.5 -84
q-11 -6 -21.5 -7t-12.5 7q0 7 11 14q66 47 66 96q0 39 -53 68q-13 7 -13 16z" />
    <glyph glyph-name="Rcaron" unicode="&#x158;" horiz-adv-x="810" 
d="M156 287v176q0 111 -3 207q-1 30 -10 42.5t-28 16.5l-14.5 2t-15 1.5t-10.5 0.5q-18 1 -18 11q0 9 22 9q25 0 87.5 -1.5t65.5 -1.5q6 0 70.5 1.5t90.5 1.5q144 0 204 -34q40 -21 65.5 -60.5t25.5 -92.5q0 -118 -134 -201q140 -202 195 -265q39 -43 61.5 -60t43.5 -20
q5 -1 9 -1.5t8.5 -1t7.5 -0.5q17 0 17 -10t-20 -10h-90q-132 0 -182 33q-41 24 -103 125l-37.5 62.5l-30.5 51.5t-19 30q-4 6 -12 6h-66q-8 0 -8 -8v-51q0 -126 5 -168q4 -47 39 -55q8 -2 45 -6q18 -1 18 -11q0 -9 -21 -9q-30 0 -73.5 0.5t-76 1.5t-33.5 1q-3 0 -63 -1.5
t-80 -1.5t-20 10t18 10q27 3 34 4q27 7 31 57q5 53 5 209zM328 674v-278q0 -10 9 -15q25 -13 77 -13q42 0 63 16q39 30 39 126q0 50 -14.5 87.5t-37.5 56t-45.5 27t-44.5 8.5q-31 0 -40 -4q-6 -3 -6 -11zM385 809q-7 0 -23 10l-133 91q-19 13 -19 19q0 3 6 11l50 33
q10 7 19 -2q33 -29 105 -76q14 -8 19 -8q6 0 21 7q40 18 129 72q17 10 26 10t4 -11q-3 -6 -10 -11q-7 -8 -85.5 -67t-84.5 -65q-17 -13 -24 -13z" />
    <glyph glyph-name="rcaron" unicode="&#x159;" horiz-adv-x="746" 
d="M140 249v152q0 134 -3 176q-3 47 -37 51q-10 2 -20 3l-11 1q-15 0 -15 10t18 10q21 0 79 -1.5t60 -1.5q4 0 66 1.5t88 1.5q136 0 188 -29q85 -43 85 -135q0 -93 -119 -170q104 -159 166 -228q33 -38 53 -52.5t42 -17.5q5 -1 14 -2t10 -1q14 -2 14 -11t-18 -9h-78
q-131 0 -180 31q-37 24 -86 104l-42.5 72t-31.5 53q-2 5 -10 5l-60 1q-7 0 -7 -7v-53q0 -81 4 -133q2 -19 8.5 -30.5t25.5 -16.5q9 -3 41 -6q16 -1 16 -11q0 -9 -17 -9q-27 0 -68.5 0.5t-72 1.5t-31.5 1q-3 0 -59.5 -1.5t-73.5 -1.5q-18 0 -18 11q0 9 16 9q2 0 13.5 1
t17.5 2q25 6 28 50q5 45 5 179zM305 578v-231q0 -7 8 -13q23 -12 74 -12q35 0 55 14q31 23 31 103q0 43 -13.5 75t-34.5 47.5t-41.5 22.5t-39.5 7q-28 0 -33 -3q-6 -3 -6 -10zM355 711q-7 0 -23 10l-125 85q-19 14 -19 19q0 4 7 11l50 33q10 7 18 -1q31 -27 98 -71
q14 -8 19 -8q6 0 20 7q52 23 120 64q18 10 25 10q9 0 4 -11q-3 -6 -10 -11q-7 -8 -80.5 -63.5t-79.5 -60.5q-16 -13 -24 -13z" />
    <glyph glyph-name="Sacute" unicode="&#x15a;" horiz-adv-x="576" 
d="M243 -17q-106 0 -167 28q-22 9 -22 40q0 91 6 147q3 24 12 24q7 0 9 -17q2 -18 5 -31q12 -59 60.5 -94t109.5 -35q65 0 94.5 27t29.5 65q0 37 -17.5 66t-75.5 69l-62 43q-88 62 -122 118.5t-34 125.5q0 89 69 148.5t186 59.5q62 0 115 -10q27 -5 49 -12q13 -4 13 -14
q-4 -64 -4 -141q0 -25 -11 -25q-9 0 -11 19q-3 34 -18 58q-16 27 -51.5 46.5t-85.5 19.5q-57 0 -84.5 -26.5t-27.5 -65.5q0 -65 80 -119l51 -34q105 -70 144.5 -125t39.5 -131q0 -119 -106 -181q-71 -43 -174 -43zM429 984q34 -34 48 -73q5 -15 -6 -15q-21 0 -58 -13
q-95 -31 -150 -58q-20 -8 -22 -8q-9 0 -9 7q0 5 10 18q28 33 72 76.5t63 58.5q22 18 32 18q8 0 20 -11z" />
    <glyph glyph-name="sacute" unicode="&#x15b;" horiz-adv-x="527" 
d="M218 -15q-93 0 -151 25q-20 8 -20 35q0 89 5 134q2 19 12 19q8 0 9 -13q3 -22 3 -23q9 -54 54.5 -86t103.5 -32q56 0 81 21.5t25 51.5q0 29 -17.5 53.5t-70.5 60.5l-55 37q-77 54 -106.5 101.5t-29.5 110.5q1 78 64.5 131t168.5 53q58 0 109 -10q38 -8 45 -10
q11 -2 11 -13q-3 -96 -3 -127q0 -21 -10 -21t-12 17q-3 26 -14 48q-14 26 -48 44t-77 18q-52 0 -75.5 -23.5t-23.5 -55.5q0 -29 15.5 -50.5t52.5 -44.5l51 -32q96 -60 130.5 -105.5t34.5 -111.5q0 -112 -100 -167q-62 -35 -162 -35zM397 881q33 -33 47 -71q5 -16 -5 -16
q-15 2 -58 -13q-89 -28 -148 -58q-16 -8 -23 -8q-8 0 -8 6q0 7 9 18q27 33 70 76.5t63 59.5q21 17 32 17q8 1 21 -11z" />
    <glyph glyph-name="Scircumflex" unicode="&#x15c;" horiz-adv-x="576" 
d="M243 -17q-106 0 -167 28q-22 9 -22 40q0 91 6 147q3 24 12 24q7 0 9 -17q2 -18 5 -31q12 -59 60.5 -94t109.5 -35q65 0 94.5 27t29.5 65q0 37 -17.5 66t-75.5 69l-62 43q-88 62 -122 118.5t-34 125.5q0 89 69 148.5t186 59.5q62 0 115 -10q27 -5 49 -12q13 -4 13 -14
q-4 -64 -4 -141q0 -25 -11 -25q-9 0 -11 19q-3 34 -18 58q-16 27 -51.5 46.5t-85.5 19.5q-57 0 -84.5 -26.5t-27.5 -65.5q0 -65 80 -119l51 -34q105 -70 144.5 -125t39.5 -131q0 -119 -106 -181q-71 -43 -174 -43zM306 983q7 0 23 -11q22 -14 133 -91q19 -13 19 -19
q0 -4 -7 -10l-50 -36q-9 -6 -18 2q-41 36 -106 76q-11 8 -19 8q-5 0 -20 -7q-40 -18 -130 -72q-17 -10 -25 -10q-9 0 -5 10q2 6 10 12l85.5 67l85.5 67q15 14 24 14z" />
    <glyph glyph-name="scircumflex" unicode="&#x15d;" horiz-adv-x="527" 
d="M218 -15q-93 0 -151 25q-20 8 -20 35q0 89 5 134q2 19 12 19q8 0 9 -13q3 -22 3 -23q9 -54 54.5 -86t103.5 -32q56 0 81 21.5t25 51.5q0 29 -17.5 53.5t-70.5 60.5l-55 37q-77 54 -106.5 101.5t-29.5 110.5q1 78 64.5 131t168.5 53q58 0 109 -10q38 -8 45 -10
q11 -2 11 -13q-3 -96 -3 -127q0 -21 -10 -21t-12 17q-3 26 -14 48q-14 26 -48 44t-77 18q-52 0 -75.5 -23.5t-23.5 -55.5q0 -29 15.5 -50.5t52.5 -44.5l51 -32q96 -60 130.5 -105.5t34.5 -111.5q0 -112 -100 -167q-62 -35 -162 -35zM281 875q5 0 23 -11l123 -83
q19 -13 19 -19q0 -5 -7 -10l-51 -34q-8 -6 -18 2q-37 32 -95 68q-11 8 -19 8q-6 0 -20 -7q-52 -23 -120 -64q-18 -10 -24 -10q-10 0 -6 10q2 6 10 12q6 5 78.5 60.5l82.5 63.5q15 14 24 14z" />
    <glyph glyph-name="uni015E" unicode="&#x15e;" horiz-adv-x="576" 
d="M288 497l51 -34q105 -70 144.5 -125t39.5 -131q0 -119 -106 -181q-36 -22 -75 -31q-53 -37 -76 -55q126 -12 126 -83q0 -15 -9 -30t-29.5 -31.5t-63.5 -26.5t-102 -10q-19 0 -19 10q0 7 21 10q36 6 63.5 23.5t27.5 49.5q0 55 -84 58q-15 0 -15 7q0 3 13 14l76 53
q-9 -1 -28 -1q-106 0 -167 28q-22 9 -22 40q0 91 6 147q3 24 12 24q7 0 9 -17q2 -18 5 -31q12 -59 60.5 -94t109.5 -35q65 0 94.5 27t29.5 65q0 37 -17.5 66t-75.5 69l-62 43q-88 62 -122 118.5t-34 125.5q0 89 69 148.5t186 59.5q62 0 115 -10q27 -5 49 -12q13 -4 13 -14
q-4 -64 -4 -141q0 -25 -11 -25q-9 0 -11 19q-3 34 -18 58q-16 27 -51.5 46.5t-85.5 19.5q-57 0 -84.5 -26.5t-27.5 -65.5q0 -65 80 -119z" />
    <glyph glyph-name="uni015F" unicode="&#x15f;" horiz-adv-x="527" 
d="M264 436l51 -32q96 -60 130.5 -105.5t34.5 -111.5q0 -112 -100 -167q-34 -19 -69 -26q-49 -34 -75 -54q126 -12 126 -83q0 -15 -8 -30t-28 -31.5t-62 -26.5t-101 -10q-19 0 -19 10q0 7 22 10q36 6 63.5 23.5t27.5 49.5q0 56 -84 57q-16 2 -16 8q0 3 13 14l79 55
q-11 -1 -31 -1q-93 0 -151 25q-20 8 -20 35q0 89 5 134q2 19 12 19q8 0 9 -13q3 -22 3 -23q9 -54 54.5 -86t103.5 -32q56 0 81 21.5t25 51.5q0 29 -17.5 53.5t-70.5 60.5l-55 37q-77 54 -106.5 101.5t-29.5 110.5q1 78 64.5 131t168.5 53q58 0 109 -10q38 -8 45 -10
q11 -2 11 -13q-3 -96 -3 -127q0 -21 -10 -21t-12 17q-3 26 -14 48q-14 26 -48 44t-77 18q-52 0 -75.5 -23.5t-23.5 -55.5q0 -29 15.5 -50.5t52.5 -44.5z" />
    <glyph glyph-name="Scaron" unicode="&#x160;" horiz-adv-x="576" 
d="M243 -17q-106 0 -167 28q-22 9 -22 40q0 91 6 147q3 24 12 24q7 0 9 -17q2 -18 5 -31q12 -59 60.5 -94t109.5 -35q65 0 94.5 27t29.5 65q0 37 -17.5 66t-75.5 69l-62 43q-88 62 -122 118.5t-34 125.5q0 89 69 148.5t186 59.5q62 0 115 -10q27 -5 49 -12q13 -4 13 -14
q-4 -64 -4 -141q0 -25 -11 -25q-9 0 -11 19q-3 34 -18 58q-16 27 -51.5 46.5t-85.5 19.5q-57 0 -84.5 -26.5t-27.5 -65.5q0 -65 80 -119l51 -34q105 -70 144.5 -125t39.5 -131q0 -119 -106 -181q-71 -43 -174 -43zM294 822q-7 0 -24 11l-133 91q-19 13 -19 19q0 3 7 10
l50 33q10 7 18 -1q41 -36 106 -76q13 -9 19 -9t20 7q32 15 130 72q16 10 26 10t3 -12q-3 -5 -9 -10q-8 -8 -86.5 -67.5t-83.5 -63.5q-17 -14 -24 -14z" />
    <glyph glyph-name="scaron" unicode="&#x161;" horiz-adv-x="527" 
d="M218 -15q-93 0 -151 25q-20 8 -20 35q0 89 5 134q2 19 12 19q8 0 9 -13q3 -22 3 -23q9 -54 54.5 -86t103.5 -32q56 0 81 21.5t25 51.5q0 29 -17.5 53.5t-70.5 60.5l-55 37q-77 54 -106.5 101.5t-29.5 110.5q1 78 64.5 131t168.5 53q58 0 109 -10q38 -8 45 -10
q11 -2 11 -13q-3 -96 -3 -127q0 -21 -10 -21t-12 17q-3 26 -14 48q-14 26 -48 44t-77 18q-52 0 -75.5 -23.5t-23.5 -55.5q0 -29 15.5 -50.5t52.5 -44.5l51 -32q96 -60 130.5 -105.5t34.5 -111.5q0 -112 -100 -167q-62 -35 -162 -35zM263 719q-5 0 -23 11l-125 85
q-19 14 -19 19q0 4 7 11l50 33q10 7 18 -2q42 -35 98 -70q11 -8 19 -8q6 0 20 7q52 23 120 64q17 10 25 10q10 0 4 -12q-3 -6 -10 -11q-7 -8 -81.5 -64l-78.5 -59q-15 -14 -24 -14z" />
    <glyph glyph-name="uni0162" unicode="&#x162;" horiz-adv-x="745" 
d="M189 750h435q35 0 63 4q6 1 13 2.5t11 2.5t7 1q7 0 8.5 -6t1.5 -25q0 -8 -3.5 -65t-3.5 -67q-1 -20 -10 -20t-11 18t-2 20q-3 26 -20 41t-58 18q-55 5 -161 5v-392q0 -171 5 -213q4 -46 39 -52q5 -1 43 -5q20 -1 20 -11q0 -9 -23 -9q-16 0 -51.5 0.5t-52.5 0.5l-82 -58
q126 -12 126 -83q0 -15 -8.5 -30t-29 -31.5t-63.5 -26.5t-103 -10q-19 0 -19 10q0 7 22 10q36 6 63.5 23.5t27.5 49.5q0 56 -84 57q-16 2 -16 8q0 3 13 14l99 69h-23q-6 0 -67 -1.5t-80 -1.5q-23 0 -23 10t20 10q22 2 32 4q27 5 32 55q6 63 6 211v392q-118 0 -151 -2
q-42 -2 -61.5 -13.5t-29.5 -37.5q-5 -11 -9 -23q-4 -16 -12 -16q-10 0 -8 20q3 29 22 133q3 25 11 25q3 0 6 -1t11 -3t17 -4q31 -7 111 -7z" />
    <glyph glyph-name="uni0163" unicode="&#x163;" horiz-adv-x="681" 
d="M172 649h400q30 0 54 4q28 5 29 5q6 0 7.5 -4t1.5 -20v-6q0 -4 -1.5 -29.5t-3.5 -54.5t-2 -37q-1 -18 -11 -18q-8 0 -10 15q0 6 -0.5 12.5t-0.5 8.5q-3 23 -15.5 35.5t-45.5 15.5q-96 6 -152 6v-333q0 -131 4 -180q4 -43 36 -48q14 -3 36 -4q20 -3 20 -12q0 -8 -21 -8
q-39 0 -105 2l-82 -59q126 -12 126 -83q0 -15 -8 -30t-28 -31.5t-62 -26.5t-101 -10q-19 0 -19 10q0 7 22 10q36 6 63.5 23.5t27.5 49.5q0 56 -84 57q-16 2 -16 8q0 3 13 14l99 69h-15q-5 0 -63 -1.5t-73 -1.5q-21 0 -21 9t18 11q1 0 11.5 1t17.5 2q24 5 29 46q4 37 4 183
v333q-107 0 -136 -2q-36 -2 -52.5 -13t-24.5 -37q-5 -15 -7 -19q-4 -13 -11 -13q-10 0 -8 18q5 40 20 127q3 19 12 19q2 0 10 -2.5t16 -3.5q30 -7 102 -7z" />
    <glyph glyph-name="Tcaron" unicode="&#x164;" horiz-adv-x="745" 
d="M459 679v-392q0 -171 5 -213q4 -46 39 -52q5 -1 43 -5q20 -1 20 -11q0 -9 -23 -9q-41 0 -110 1.5t-71 1.5q-6 0 -67 -1.5t-80 -1.5q-23 0 -23 10t20 10q22 2 32 4q27 5 32 55q6 63 6 211v392q-118 0 -151 -2q-42 -2 -61.5 -13.5t-29.5 -37.5q-5 -11 -9 -23
q-4 -16 -12 -16q-10 0 -8 20q3 29 22 133q3 25 11 25q3 0 6 -1t11 -3t17 -4q31 -7 111 -7h435q35 0 63 4q6 1 13 2.5t11 2.5t7 1q7 0 8.5 -6t1.5 -25q0 -8 -3.5 -65t-3.5 -67q-1 -20 -10 -20t-11 18t-2 20q-3 26 -20 41t-58 18q-55 5 -161 5zM357 805q-7 0 -23 10l-133 91
q-19 14 -19 19q0 3 6 11l50 33q10 7 19 -2q30 -26 106 -76q12 -8 19 -8q5 0 20 7q37 16 129 72q19 10 26 10q9 0 4 -11q-3 -6 -10 -11q-7 -8 -85.5 -67t-84.5 -65q-16 -13 -24 -13z" />
    <glyph glyph-name="tcaron" unicode="&#x165;" horiz-adv-x="681" 
d="M422 582v-333q0 -131 4 -180q4 -43 36 -48q14 -3 36 -4q20 -3 20 -12q0 -8 -21 -8q-37 0 -103 1l-66 2q-5 0 -63 -1.5t-73 -1.5q-21 0 -21 9t18 11q1 0 11.5 1t17.5 2q24 5 29 46q4 37 4 183v333q-107 0 -136 -2q-36 -2 -52.5 -13t-24.5 -37q-5 -15 -7 -19
q-4 -13 -11 -13q-10 0 -8 18q5 40 20 127q3 19 12 19q2 0 10 -2.5t16 -3.5q30 -7 102 -7h400q30 0 54 4q28 5 29 5q6 0 7.5 -4t1.5 -20v-6q0 -4 -1.5 -29.5t-3.5 -54.5t-2 -37q-1 -18 -11 -18q-8 0 -10 15q0 6 -0.5 12.5t-0.5 8.5q-3 23 -15.5 35.5t-45.5 15.5q-96 6 -152 6
zM331 711q-7 0 -24 11l-125 85q-19 13 -19 19q0 4 7 10l50 34q11 6 19 -2q37 -33 98 -70q11 -9 19 -9q5 0 20 7q47 22 119 64q16 10 26 10t3 -12q-3 -5 -9 -10q-8 -8 -81.5 -63.5t-78.5 -59.5q-17 -14 -24 -14z" />
    <glyph glyph-name="Utilde" unicode="&#x168;" horiz-adv-x="875" 
d="M302 463v-150q0 -102 17 -153.5t59 -81.5q43 -28 100 -28q67 0 110 37q20 17 32 43.5t17 66.5t6 67t1 79v120q0 173 -2 205q-2 30 -10.5 43.5t-32.5 17.5q-4 1 -37 4q-18 0 -18 10t23 10q34 0 82.5 -1.5t51.5 -1.5q5 0 54.5 1.5t77.5 1.5q21 0 21 -10q0 -9 -17 -10
q-21 -2 -31 -4q-20 -4 -28 -17t-10 -44q-3 -48 -3 -205v-98q0 -42 -1 -70t-7 -67t-16 -67.5t-30 -58.5t-48 -53q-79 -66 -208 -66q-161 0 -238 67q-93 77 -93 261v152q0 183 -3 215q-2 22 -8 32.5t-23 15.5q-9 3 -43 7q-21 1 -21 11q0 9 27 9q26 0 89 -1l64 -2l71 2
q71 1 92 1q22 0 22 -9q0 -10 -18 -11q-29 -3 -33 -4q-19 -4 -26 -18t-9 -41q-3 -48 -3 -207zM542 831q-29 0 -92 25.5t-87 25.5q-21 0 -37.5 -6t-25 -13.5t-22.5 -21.5q-7 -8 -14 -8q-12 0 0 19q24 43 57 69.5t65 26.5t93 -22l25 -10t21.5 -8l16 -5t16 -4t14.5 -1
q26 0 42.5 9.5t42.5 36.5q4 5 10 5q12 0 1 -17q-55 -101 -126 -101z" />
    <glyph glyph-name="utilde" unicode="&#x169;" horiz-adv-x="793" 
d="M284 401v-131q0 -89 14.5 -132.5t54.5 -68.5q37 -21 82 -21q57 0 92 28q25 19 37 60.5t13 70.5t1 92v102q0 146 -2 174q-2 26 -9.5 37.5t-28.5 15.5q-9 2 -33 4q-16 1 -16 11q0 9 20 9q31 0 75.5 -1.5t49.5 -1.5q4 0 49 1.5t72 1.5q19 0 19 -10q0 -8 -15 -10
q-22 -2 -28 -4q-18 -3 -24.5 -14t-8.5 -39q-3 -42 -3 -174v-83q0 -47 -2.5 -77.5t-10.5 -70t-28.5 -71.5t-52.5 -57q-73 -57 -186 -57q-146 0 -217 58q-84 65 -84 226v132q0 157 -2 185q-3 34 -27 40q-3 1 -39 6q-16 2 -16 11t22 9q16 0 49.5 -1t60.5 -1l28 -1q1 0 33 0.5
t69.5 1.5t51.5 1q22 0 22 -9t-15 -11l-32 -4q-30 -6 -33 -51q-2 -28 -2 -176zM490 730q-26 0 -84 24.5t-80 24.5q-20 0 -36 -6.5t-23 -12.5t-20 -19q-8 -8 -13 -8q-10 0 -1 18q24 42 54.5 67t59.5 25q32 0 85 -21q67 -27 87 -27q24 0 39 9.5t39 34.5q4 5 10 5q9 0 1 -17
q-54 -97 -118 -97z" />
    <glyph glyph-name="Umacron" unicode="&#x16a;" horiz-adv-x="875" 
d="M302 463v-150q0 -102 17 -153.5t59 -81.5q43 -28 100 -28q67 0 110 37q20 17 32 43.5t17 66.5t6 67t1 79v120q0 173 -2 205q-2 30 -10.5 43.5t-32.5 17.5q-4 1 -37 4q-18 0 -18 10t23 10q34 0 82.5 -1.5t51.5 -1.5q5 0 54.5 1.5t77.5 1.5q21 0 21 -10q0 -9 -17 -10
q-21 -2 -31 -4q-20 -4 -28 -17t-10 -44q-3 -48 -3 -205v-98q0 -42 -1 -70t-7 -67t-16 -67.5t-30 -58.5t-48 -53q-79 -66 -208 -66q-161 0 -238 67q-93 77 -93 261v152q0 183 -3 215q-2 22 -8 32.5t-23 15.5q-9 3 -43 7q-21 1 -21 11q0 9 27 9q26 0 89 -1l64 -2l71 2
q71 1 92 1q22 0 22 -9q0 -10 -18 -11q-29 -3 -33 -4q-19 -4 -26 -18t-9 -41q-3 -48 -3 -207zM606 854h-318q-5 0 -5 8q4 36 11 52q3 6 9 6h321q7 0 7 -8q-4 -36 -11 -50q-4 -8 -14 -8z" />
    <glyph glyph-name="umacron" unicode="&#x16b;" horiz-adv-x="793" 
d="M284 401v-131q0 -89 14.5 -132.5t54.5 -68.5q37 -21 82 -21q57 0 92 28q25 19 37 60.5t13 70.5t1 92v102q0 146 -2 174q-2 26 -9.5 37.5t-28.5 15.5q-9 2 -33 4q-16 1 -16 11q0 9 20 9q31 0 75.5 -1.5t49.5 -1.5q4 0 49 1.5t72 1.5q19 0 19 -10q0 -8 -15 -10
q-22 -2 -28 -4q-18 -3 -24.5 -14t-8.5 -39q-3 -42 -3 -174v-83q0 -47 -2.5 -77.5t-10.5 -70t-28.5 -71.5t-52.5 -57q-73 -57 -186 -57q-146 0 -217 58q-84 65 -84 226v132q0 157 -2 185q-3 34 -27 40q-3 1 -39 6q-16 2 -16 11t22 9q16 0 49.5 -1t60.5 -1l28 -1q1 0 33 0.5
t69.5 1.5t51.5 1q22 0 22 -9t-15 -11l-32 -4q-30 -6 -33 -51q-2 -28 -2 -176zM551 753h-299q-5 0 -5 8q4 36 12 49q2 7 9 7h301q8 0 6 -8q-4 -33 -11 -48q-4 -8 -13 -8z" />
    <glyph glyph-name="Ubreve" unicode="&#x16c;" horiz-adv-x="875" 
d="M302 463v-150q0 -102 17 -153.5t59 -81.5q43 -28 100 -28q67 0 110 37q20 17 32 43.5t17 66.5t6 67t1 79v120q0 173 -2 205q-2 30 -10.5 43.5t-32.5 17.5q-4 1 -37 4q-18 0 -18 10t23 10q34 0 82.5 -1.5t51.5 -1.5q5 0 54.5 1.5t77.5 1.5q21 0 21 -10q0 -9 -17 -10
q-21 -2 -31 -4q-20 -4 -28 -17t-10 -44q-3 -48 -3 -205v-98q0 -42 -1 -70t-7 -67t-16 -67.5t-30 -58.5t-48 -53q-79 -66 -208 -66q-161 0 -238 67q-93 77 -93 261v152q0 183 -3 215q-2 22 -8 32.5t-23 15.5q-9 3 -43 7q-21 1 -21 11q0 9 27 9q26 0 89 -1l64 -2l71 2
q71 1 92 1q22 0 22 -9q0 -10 -18 -11q-29 -3 -33 -4q-19 -4 -26 -18t-9 -41q-3 -48 -3 -207zM261 916q0 10 10 16q12 11 29 20.5t24 9.5t9 -6q12 -32 51 -53.5t97 -21.5q104 0 163 71q10 10 17 10q11 0 -1 -23l-4 -6q-34 -52 -92.5 -80t-120.5 -28q-94 0 -148 39
q-34 26 -34 52z" />
    <glyph glyph-name="ubreve" unicode="&#x16d;" horiz-adv-x="793" 
d="M284 401v-131q0 -89 14.5 -132.5t54.5 -68.5q37 -21 82 -21q57 0 92 28q25 19 37 60.5t13 70.5t1 92v102q0 146 -2 174q-2 26 -9.5 37.5t-28.5 15.5q-9 2 -33 4q-16 1 -16 11q0 9 20 9q31 0 75.5 -1.5t49.5 -1.5q4 0 49 1.5t72 1.5q19 0 19 -10q0 -8 -15 -10
q-22 -2 -28 -4q-18 -3 -24.5 -14t-8.5 -39q-3 -42 -3 -174v-83q0 -47 -2.5 -77.5t-10.5 -70t-28.5 -71.5t-52.5 -57q-73 -57 -186 -57q-146 0 -217 58q-84 65 -84 226v132q0 157 -2 185q-3 34 -27 40q-3 1 -39 6q-16 2 -16 11t22 9q16 0 49.5 -1t60.5 -1l28 -1q1 0 33 0.5
t69.5 1.5t51.5 1q22 0 22 -9t-15 -11l-32 -4q-30 -6 -33 -51q-2 -28 -2 -176zM225 816q0 10 9 15q10 11 26.5 20t23.5 9t9 -6q11 -31 48.5 -52t92.5 -21q94 0 148 66q9 10 16 10q10 0 0 -18q-2 -5 -5 -9q-33 -48 -86 -74t-111 -26q-88 0 -139 37q-32 23 -32 49z" />
    <glyph glyph-name="Uring" unicode="&#x16e;" horiz-adv-x="875" 
d="M302 463v-150q0 -102 17 -153.5t59 -81.5q43 -28 100 -28q67 0 110 37q20 17 32 43.5t17 66.5t6 67t1 79v120q0 173 -2 205q-2 30 -10.5 43.5t-32.5 17.5q-4 1 -37 4q-18 0 -18 10t23 10q34 0 82.5 -1.5t51.5 -1.5q5 0 54.5 1.5t77.5 1.5q21 0 21 -10q0 -9 -17 -10
q-21 -2 -31 -4q-20 -4 -28 -17t-10 -44q-3 -48 -3 -205v-98q0 -42 -1 -70t-7 -67t-16 -67.5t-30 -58.5t-48 -53q-79 -66 -208 -66q-161 0 -238 67q-93 77 -93 261v152q0 183 -3 215q-2 22 -8 32.5t-23 15.5q-9 3 -43 7q-21 1 -21 11q0 9 27 9q26 0 89 -1l64 -2l71 2
q71 1 92 1q22 0 22 -9q0 -10 -18 -11q-29 -3 -33 -4q-19 -4 -26 -18t-9 -41q-3 -48 -3 -207zM444 798q-38 0 -61.5 18t-23.5 45q0 40 38.5 67t98.5 27q45 0 68.5 -17.5t23.5 -45.5q-1 -43 -44.5 -68.5t-99.5 -25.5zM424 879q0 -23 16.5 -37.5t35.5 -14.5q23 0 36 14t13 36
q0 19 -14.5 34t-40.5 15q-18 0 -32 -12t-14 -35z" />
    <glyph glyph-name="uring" unicode="&#x16f;" horiz-adv-x="793" 
d="M284 401v-131q0 -89 14.5 -132.5t54.5 -68.5q37 -21 82 -21q57 0 92 28q25 19 37 60.5t13 70.5t1 92v102q0 146 -2 174q-2 26 -9.5 37.5t-28.5 15.5q-9 2 -33 4q-16 1 -16 11q0 9 20 9q31 0 75.5 -1.5t49.5 -1.5q4 0 49 1.5t72 1.5q19 0 19 -10q0 -8 -15 -10
q-22 -2 -28 -4q-18 -3 -24.5 -14t-8.5 -39q-3 -42 -3 -174v-83q0 -47 -2.5 -77.5t-10.5 -70t-28.5 -71.5t-52.5 -57q-73 -57 -186 -57q-146 0 -217 58q-84 65 -84 226v132q0 157 -2 185q-3 34 -27 40q-3 1 -39 6q-16 2 -16 11t22 9q16 0 49.5 -1t60.5 -1l28 -1q1 0 33 0.5
t69.5 1.5t51.5 1q22 0 22 -9t-15 -11l-32 -4q-30 -6 -33 -51q-2 -28 -2 -176zM398 706q-38 0 -61.5 18t-23.5 45q0 40 38.5 67t98.5 27q44 0 67.5 -17.5t23.5 -45.5q-1 -43 -44 -68.5t-99 -25.5zM377 787q0 -22 17 -37t36 -15q23 0 36 14.5t13 36.5q0 19 -15 33.5t-40 14.5
q-19 0 -33 -11.5t-14 -35.5z" />
    <glyph glyph-name="Uhungarumlaut" unicode="&#x170;" horiz-adv-x="875" 
d="M302 463v-150q0 -102 17 -153.5t59 -81.5q43 -28 100 -28q67 0 110 37q20 17 32 43.5t17 66.5t6 67t1 79v120q0 173 -2 205q-2 30 -10.5 43.5t-32.5 17.5q-4 1 -37 4q-18 0 -18 10t23 10q34 0 82.5 -1.5t51.5 -1.5q5 0 54.5 1.5t77.5 1.5q21 0 21 -10q0 -9 -17 -10
q-21 -2 -31 -4q-20 -4 -28 -17t-10 -44q-3 -48 -3 -205v-98q0 -42 -1 -70t-7 -67t-16 -67.5t-30 -58.5t-48 -53q-79 -66 -208 -66q-161 0 -238 67q-93 77 -93 261v152q0 183 -3 215q-2 22 -8 32.5t-23 15.5q-9 3 -43 7q-21 1 -21 11q0 9 27 9q26 0 89 -1l64 -2l71 2
q71 1 92 1q22 0 22 -9q0 -10 -18 -11q-29 -3 -33 -4q-19 -4 -26 -18t-9 -41q-3 -48 -3 -207zM395 967q19 26 26 26q11 0 19 -4q45 -21 75 -41q4 -3 6 -6t1 -4.5t-3 -2.5q-29 -12 -40 -18q-81 -44 -133 -90q-11 -12 -21 -12q-5 0 -6.5 4t0.5 9q29 67 76 139zM627 969
q18 24 26 24q11 0 21 -6q43 -19 74 -45q11 -11 1 -13q-25 -8 -40 -15q-88 -39 -143 -86q-19 -13 -23 -13q-7 0 -4 12q4 10 36 63t52 79z" />
    <glyph glyph-name="uhungarumlaut" unicode="&#x171;" horiz-adv-x="793" 
d="M284 401v-131q0 -89 14.5 -132.5t54.5 -68.5q37 -21 82 -21q57 0 92 28q25 19 37 60.5t13 70.5t1 92v102q0 146 -2 174q-2 26 -9.5 37.5t-28.5 15.5q-9 2 -33 4q-16 1 -16 11q0 9 20 9q31 0 75.5 -1.5t49.5 -1.5q4 0 49 1.5t72 1.5q19 0 19 -10q0 -8 -15 -10
q-22 -2 -28 -4q-18 -3 -24.5 -14t-8.5 -39q-3 -42 -3 -174v-83q0 -47 -2.5 -77.5t-10.5 -70t-28.5 -71.5t-52.5 -57q-73 -57 -186 -57q-146 0 -217 58q-84 65 -84 226v132q0 157 -2 185q-3 34 -27 40q-3 1 -39 6q-16 2 -16 11t22 9q16 0 49.5 -1t60.5 -1l28 -1q1 0 33 0.5
t69.5 1.5t51.5 1q22 0 22 -9t-15 -11l-32 -4q-30 -6 -33 -51q-2 -28 -2 -176zM339 875q18 26 26 26q10 0 18 -4q48 -23 76 -41q12 -8 4 -13q-34 -14 -40 -17q-87 -50 -134 -91q-10 -12 -20 -12q-5 0 -6.5 4t0.5 9q29 67 76 139zM571 878q18 23 25 23q12 0 22 -5
q51 -26 74 -46q11 -9 1 -12q-19 -6 -40 -15q-86 -38 -143 -87q-19 -13 -23 -13q-7 0 -4 12q4 10 36 63t52 80z" />
    <glyph glyph-name="Uogonek" unicode="&#x172;" horiz-adv-x="875" 
d="M644 343v120q0 173 -2 205q-2 30 -10.5 43.5t-32.5 17.5q-4 1 -37 4q-18 0 -18 10t23 10q34 0 82.5 -1.5t51.5 -1.5q5 0 54.5 1.5t77.5 1.5q21 0 21 -10q0 -9 -17 -10q-21 -2 -31 -4q-20 -4 -28 -17t-10 -44q-3 -48 -3 -205v-98q0 -42 -1 -70t-7 -67t-16 -67.5t-30 -58.5
t-48 -53q-29 -25 -64 -39q-95 -62 -95 -126q0 -26 16.5 -41.5t45.5 -15.5q32 0 57 13q13 6 13 -2q0 -9 -9 -18q-15 -15 -49 -30.5t-78 -15.5q-48 0 -77.5 21.5t-29.5 60.5q0 62 140 134q-36 -7 -78 -7q-161 0 -238 67q-93 77 -93 261v152q0 183 -3 215q-2 22 -8 32.5
t-23 15.5q-9 3 -43 7q-21 1 -21 11q0 9 27 9q26 0 89 -1l64 -2l71 2q71 1 92 1q22 0 22 -9q0 -10 -18 -11q-29 -3 -33 -4q-19 -4 -26 -18t-9 -41q-3 -48 -3 -207v-150q0 -102 17 -153.5t59 -81.5q43 -28 100 -28q67 0 110 37q20 17 32 43.5t17 66.5t6 67t1 79z" />
    <glyph glyph-name="uogonek" unicode="&#x173;" horiz-adv-x="793" 
d="M578 299v102q0 146 -2 174q-2 26 -9.5 37.5t-28.5 15.5q-9 2 -33 4q-16 1 -16 11q0 9 20 9q31 0 75.5 -1.5t49.5 -1.5q4 0 49 1.5t72 1.5q19 0 19 -10q0 -8 -15 -10q-22 -2 -28 -4q-18 -3 -24.5 -14t-8.5 -39q-3 -42 -3 -174v-83q0 -47 -2.5 -77.5t-10.5 -70t-28.5 -71.5
t-52.5 -57q-26 -21 -66 -36q-30 -22 -45 -53t-15 -53q0 -64 65 -64q29 0 56 17q4 3 8.5 2.5t4.5 -4.5q0 -11 -9 -18q-13 -15 -46.5 -32.5t-76.5 -17.5q-47 0 -75 23t-28 63q0 59 99 120q-27 -4 -58 -4q-146 0 -217 58q-84 65 -84 226v132q0 157 -2 185q-3 34 -27 40
q-3 1 -39 6q-16 2 -16 11t22 9q16 0 49.5 -1t60.5 -1l28 -1q1 0 33 0.5t69.5 1.5t51.5 1q22 0 22 -9t-15 -11l-32 -4q-30 -6 -33 -51q-2 -28 -2 -176v-131q0 -89 14.5 -132.5t54.5 -68.5q37 -21 82 -21q57 0 92 28q25 19 37 60.5t13 70.5t1 92z" />
    <glyph glyph-name="Wcircumflex" unicode="&#x174;" horiz-adv-x="1115" 
d="M290 45l-222 610q-13 35 -23.5 51t-26.5 21q-8 2 -19.5 4t-12.5 2q-16 1 -16 11q0 9 21 9q37 0 90 -1.5t55 -1.5q8 0 63 1.5t86 1.5q21 0 21 -10t-16 -10q-16 -2 -25 -4q-18 -3 -18 -22q0 -11 24 -90q67 -220 119 -355l177 453q14 36 28 36q3 0 5.5 -1t4.5 -3.5l4 -5
t4.5 -7t4.5 -8.5l5 -10.5t6 -11.5l200 -443q51 147 109 353q20 68 20 85t-11.5 23.5t-49.5 10.5q-17 0 -17 9q0 11 21 11q28 0 57 -0.5t47 -1.5t20 -1l46 1q46 1 67 1q20 0 20 -9q0 -10 -16 -10q-21 -2 -32 -5q-21 -4 -35 -27t-35 -79l-211 -578q-22 -61 -40 -61
q-9 0 -16.5 10.5t-20.5 39.5l-200 429q-106 -263 -180 -422q-25 -57 -44 -57q-9 0 -16.5 12.5t-21.5 49.5zM622 969q7 0 23 -10l68.5 -46.5l65.5 -44.5q18 -12 18 -19q0 -5 -6 -10l-51 -37q-8 -7 -18 3q-40 35 -105 75q-13 9 -19 9t-21 -7q-31 -15 -129 -72q-17 -10 -25 -10
q-10 0 -6 10q3 6 11 12q6 5 83.5 65.5t86.5 68.5q17 13 24 13z" />
    <glyph glyph-name="wcircumflex" unicode="&#x175;" horiz-adv-x="1012" 
d="M263 44l-202 521q-12 31 -22 44.5t-26 17.5q-6 2 -14.5 3t-11.5 2q-14 3 -14 11q0 9 19 9q33 0 83 -1.5t52 -1.5q10 0 63 1.5t80 1.5q19 0 19 -10t-15 -10q-14 -2 -22 -3q-19 -3 -19 -19q0 -11 23 -77q50 -155 104 -291l155 378q12 30 25 30q2 0 4.5 -1t4 -2t3.5 -3.5
l3.5 -4.5t3.5 -6t3.5 -6.5t4 -8t4.5 -9.5l178 -370q40 110 93 286q19 67 19 76q0 14 -10.5 21t-44.5 10q-17 0 -17 9q0 11 18 11q26 0 53 -1t44 -1.5t19 -0.5t22 0.5t45.5 1t39.5 0.5q19 0 19 -9t-15 -10q-19 -2 -28 -4q-20 -4 -34 -23t-32 -68l-191 -495q-20 -49 -31 -55
q-3 -2 -7 -2q-9 0 -16 9.5t-19 34.5l-178 355q-41 -98 -156 -348q-25 -51 -42 -51q-9 0 -16 11.5t-21 47.5zM552 862q5 0 23 -11l123 -83q19 -13 19 -19q0 -5 -7 -10l-50 -34q-10 -6 -18 2q-34 30 -96 68q-10 8 -19 8q-5 0 -20 -7q-49 -21 -119 -64q-19 -10 -25 -10
q-9 0 -5 10q2 6 10 12q7 6 79.5 62l80.5 62q17 14 24 14z" />
    <glyph glyph-name="Ycircumflex" unicode="&#x176;" horiz-adv-x="706" 
d="M266 179v77q0 26 -4 45.5t-8.5 30t-15.5 31.5q-27 50 -85.5 147.5t-84.5 136.5q-29 45 -43.5 59.5t-37.5 21.5q-8 3 -26 5q-15 1 -15 11q0 9 20 9q21 0 78 -1.5t76 -1.5q3 0 54.5 1.5t88.5 1.5q19 0 19 -8q0 -9 -20 -13q-31 -3 -31 -21q0 -10 10 -29l157 -281
q123 232 134 255q16 34 16 51q0 19 -36 25q-17 4 -17 12q0 9 22 9q21 0 57.5 -1.5t55.5 -1.5q6 0 55.5 1.5t59.5 1.5q20 0 20 -9q0 -11 -20 -11q-19 -1 -39 -8q-6 -2 -11 -5t-9.5 -6.5l-7.5 -6t-7.5 -7.5t-6.5 -7.5l-7 -9t-7 -9.5q-26 -32 -103.5 -165t-87.5 -164
q-16 -45 -16 -95v-71q0 -57 3 -99q1 -17 3 -25.5t11.5 -18.5t26.5 -13q11 -2 32 -4t23 -2q16 -1 16 -11q0 -9 -20 -9q-41 0 -108.5 1.5t-79.5 1.5t-71 -1.5t-84 -1.5q-20 0 -20 11q0 9 18 9q32 4 35 5q31 8 34 54q4 56 4 103zM396 989q7 0 23 -10l133 -91q19 -13 19 -19
q0 -5 -7 -10l-50 -37q-10 -7 -18 3q-38 33 -106 75q-13 9 -19 9t-20 -7q-32 -15 -130 -72q-16 -10 -25 -10t-5 10q2 6 10 12q6 5 84 65.5t87 68.5q16 13 24 13z" />
    <glyph glyph-name="ycircumflex" unicode="&#x177;" horiz-adv-x="644" 
d="M238 155v67q0 22 -4 39.5t-7.5 24.5l-14.5 28q-90 159 -151 245q-27 41 -40 52t-36 16q-5 2 -19 4q-13 3 -13 11q0 10 18 10q22 0 74.5 -1.5t69.5 -1.5q1 0 51.5 1.5t85.5 1.5q17 0 17 -9q0 -8 -16 -12q-33 -4 -33 -17q0 -8 9 -24l137 -238q86 152 116 216q15 32 15 40
q0 9 -7 14.5t-28 8.5q-14 2 -14 11q0 10 20 10q19 0 53.5 -1.5t52.5 -1.5q5 0 50.5 1.5t54.5 1.5q17 0 17 -8q0 -11 -17 -12t-34 -6q-18 -7 -27.5 -15.5t-24.5 -27.5q-23 -26 -92.5 -143t-78.5 -144q-14 -40 -14 -80v-61q0 -44 2 -81q1 -15 2.5 -22t10 -17t24.5 -13
q11 -3 51 -5q15 0 15 -10t-16 -10q-37 0 -102.5 1.5t-76.5 1.5t-66.5 -1.5t-78.5 -1.5q-18 0 -18 11q0 9 17 9q21 1 31 4q30 8 32 47q3 37 3 87zM359 874q7 0 23 -11l123 -82q19 -14 19 -19t-7 -11l-50 -34q-10 -7 -18 3q-34 29 -96 67q-13 9 -19 9q-5 0 -20 -7
q-47 -22 -119 -64q-17 -10 -25 -10q-10 0 -6 10q3 5 11 12q6 5 78.5 60.5t81.5 63.5q17 13 24 13z" />
    <glyph glyph-name="Ydieresis" unicode="&#x178;" horiz-adv-x="706" 
d="M266 179v77q0 26 -4 45.5t-8.5 30t-15.5 31.5q-27 50 -85.5 147.5t-84.5 136.5q-29 45 -43.5 59.5t-37.5 21.5q-8 3 -26 5q-15 1 -15 11q0 9 20 9q21 0 78 -1.5t76 -1.5q3 0 54.5 1.5t88.5 1.5q19 0 19 -8q0 -9 -20 -13q-31 -3 -31 -21q0 -10 10 -29l157 -281
q123 232 134 255q16 34 16 51q0 19 -36 25q-17 4 -17 12q0 9 22 9q21 0 57.5 -1.5t55.5 -1.5q6 0 55.5 1.5t59.5 1.5q20 0 20 -9q0 -11 -20 -11q-19 -1 -39 -8q-6 -2 -11 -5t-9.5 -6.5l-7.5 -6t-7.5 -7.5t-6.5 -7.5l-7 -9t-7 -9.5q-26 -32 -103.5 -165t-87.5 -164
q-16 -45 -16 -95v-71q0 -57 3 -99q1 -17 3 -25.5t11.5 -18.5t26.5 -13q11 -2 32 -4t23 -2q16 -1 16 -11q0 -9 -20 -9q-41 0 -108.5 1.5t-79.5 1.5t-71 -1.5t-84 -1.5q-20 0 -20 11q0 9 18 9q32 4 35 5q31 8 34 54q4 56 4 103zM500 840q-26 0 -40.5 17.5t-14.5 38.5
q0 19 15.5 37t39.5 18q23 0 39 -15t16 -38q0 -25 -15 -41.5t-40 -16.5zM257 840q-26 0 -39.5 17t-13.5 39q0 20 14.5 36.5t39.5 16.5q24 0 39.5 -14.5t15.5 -37.5q0 -25 -15.5 -41t-40.5 -16z" />
    <glyph glyph-name="Zacute" unicode="&#x179;" horiz-adv-x="739" 
d="M290 73h196q86 0 125 16.5t52 55.5q7 18 10 33q4 16 12 16q9 0 9 -21t-10 -73t-18 -78q-7 -26 -27 -26q-75 0 -258.5 2.5t-307.5 2.5q-18 0 -18 10q0 8 17 35l394 634h-170q-102 0 -140 -19q-39 -20 -57 -83q-6 -19 -14 -19t-8 18q0 4 21 164q3 19 11 19q3 0 15.5 -3
t25.5 -4q71 -3 195 -3h331q15 0 15 -10q0 -9 -12 -29zM520 983q34 -34 48 -73q5 -16 -6 -16q-24 0 -58 -12q-95 -31 -150 -58q-16 -8 -22 -8q-9 0 -9 7q0 5 10 18q28 33 72 76.5t63 58.5q23 18 32 18q8 0 20 -11z" />
    <glyph glyph-name="zacute" unicode="&#x17a;" horiz-adv-x="666" 
d="M273 66h163q79 0 114 15t48 52q3 8 8 26q4 13 13 13q8 0 8 -15q0 -18 -9.5 -66.5t-17.5 -71.5q-2 -7 -3.5 -11t-7 -7.5t-13.5 -3.5q-67 0 -232 2t-281 2q-16 0 -16 9q0 8 15 31l345 541h-143q-95 0 -126 -16q-32 -17 -49 -74q-5 -16 -15 -16q-9 0 -9 15q0 7 4 36.5
l9 65.5t7 49q3 16 11 16q2 0 13.5 -2.5t23.5 -3.5q85 -3 176 -3h302q13 0 13 -8q0 -10 -11 -28zM483 881q33 -33 47 -71q5 -16 -5 -16q-15 2 -58 -13q-89 -28 -148 -58q-16 -8 -23 -8q-8 0 -8 6q0 7 9 18q27 33 70 76.5t63 59.5q21 17 32 17q8 1 21 -11z" />
    <glyph glyph-name="Zdotaccent" unicode="&#x17b;" horiz-adv-x="739" 
d="M290 73h196q86 0 125 16.5t52 55.5q7 18 10 33q4 16 12 16q9 0 9 -21t-10 -73t-18 -78q-7 -26 -27 -26q-75 0 -258.5 2.5t-307.5 2.5q-18 0 -18 10q0 8 17 35l394 634h-170q-102 0 -140 -19q-39 -20 -57 -83q-6 -19 -14 -19t-8 18q0 4 21 164q3 19 11 19q3 0 15.5 -3
t25.5 -4q71 -3 195 -3h331q15 0 15 -10q0 -9 -12 -29zM388 826q-28 0 -44.5 17.5t-16.5 42.5q0 24 17 43.5t44 19.5q25 0 43 -18t18 -43q0 -24 -17.5 -43t-43.5 -19z" />
    <glyph glyph-name="zdotaccent" unicode="&#x17c;" horiz-adv-x="666" 
d="M273 66h163q79 0 114 15t48 52q3 8 8 26q4 13 13 13q8 0 8 -15q0 -18 -9.5 -66.5t-17.5 -71.5q-2 -7 -3.5 -11t-7 -7.5t-13.5 -3.5q-67 0 -232 2t-281 2q-16 0 -16 9q0 8 15 31l345 541h-143q-95 0 -126 -16q-32 -17 -49 -74q-5 -16 -15 -16q-9 0 -9 15q0 7 4 36.5
l9 65.5t7 49q3 16 11 16q2 0 13.5 -2.5t23.5 -3.5q85 -3 176 -3h302q13 0 13 -8q0 -10 -11 -28zM343 730q-27 0 -43.5 18t-16.5 42t16.5 43.5t43.5 19.5q25 0 43 -17.5t18 -43.5q0 -24 -17.5 -43t-43.5 -19z" />
    <glyph glyph-name="Zcaron" unicode="&#x17d;" horiz-adv-x="739" 
d="M290 73h196q86 0 125 16.5t52 55.5q7 18 10 33q4 16 12 16q9 0 9 -21t-10 -73t-18 -78q-7 -26 -27 -26q-75 0 -258.5 2.5t-307.5 2.5q-18 0 -18 10q0 8 17 35l394 634h-170q-102 0 -140 -19q-39 -20 -57 -83q-6 -19 -14 -19t-8 18q0 4 21 164q3 19 11 19q3 0 15.5 -3
t25.5 -4q71 -3 195 -3h331q15 0 15 -10q0 -9 -12 -29zM381 817q-5 0 -23 11q-62 40 -133 91q-19 12 -19 19q0 4 6 10l50 33q10 7 19 -1q39 -35 105 -76q11 -8 19 -8q5 0 21 6q31 15 129 72q16 10 26 10t3 -12q-3 -5 -9 -10q-8 -8 -86.5 -67.5t-83.5 -63.5q-17 -14 -24 -14z
" />
    <glyph glyph-name="zcaron" unicode="&#x17e;" horiz-adv-x="666" 
d="M273 66h163q79 0 114 15t48 52q3 8 8 26q4 13 13 13q8 0 8 -15q0 -18 -9.5 -66.5t-17.5 -71.5q-2 -7 -3.5 -11t-7 -7.5t-13.5 -3.5q-67 0 -232 2t-281 2q-16 0 -16 9q0 8 15 31l345 541h-143q-95 0 -126 -16q-32 -17 -49 -74q-5 -16 -15 -16q-9 0 -9 15q0 7 4 36.5
l9 65.5t7 49q3 16 11 16q2 0 13.5 -2.5t23.5 -3.5q85 -3 176 -3h302q13 0 13 -8q0 -10 -11 -28zM336 718q-7 0 -23 11l-125 85q-19 14 -19 19q0 4 7 10l50 34q10 7 19 -2q40 -35 97 -70q11 -8 19 -8q5 0 21 6q54 26 119 64q16 10 26 10q8 0 3 -11q-3 -5 -10 -11
q-5 -6 -40 -33l-75.5 -57l-44.5 -33q-15 -14 -24 -14z" />
    <glyph glyph-name="uni018F" unicode="&#x18f;" horiz-adv-x="875" 
d="M378 362h241q7 0 7 8v14q0 148 -75.5 224.5t-199.5 76.5q-149 0 -251 -73q-14 -10 -21 -10q-6 0 -6 7q1 11 25 33q68 62 155 93.5t177 31.5q101 0 179 -34t122.5 -90t66.5 -120t22 -133q0 -204 -146 -320q-110 -87 -250 -87q-96 0 -170 30t-116.5 79t-64 105t-21.5 115
q0 20 2 31q2 9 8 12t30 4q61 3 286 3zM617 302h-263q-87 0 -93 -2q-9 -3 -9 -37q0 -98 48 -161t133 -63q164 0 189 258q0 5 -5 5z" />
    <glyph glyph-name="florin" unicode="&#x192;" horiz-adv-x="667" 
d="M197 398h25q19 188 107 286q81 83 215 83q68 0 109 -22q11 -7 11 -26q0 -27 -11 -112q-3 -26 -12 -26t-9 26q0 34 -21 66q-31 45 -91 45q-23 0 -40.5 -9t-30.5 -31t-22 -45t-17 -65t-13 -76.5t-12 -93.5h85q43 0 88 3q5 1 7 -2t-1 -13q-11 -31 -19 -43q-5 -10 -20 -10
q-2 0 -21 1t-46.5 2t-48.5 1h-32q-12 -104 -19.5 -161t-20 -123.5t-28.5 -109.5q-62 -175 -275 -175q-37 0 -37 13q0 12 26 12q70 0 104 57t51 211l38 277h-32q-49 0 -82 -3q-6 -1 -8 2.5t0 9.5q4 13 18 43q5 9 14 9q1 0 26 -0.5t45 -0.5z" />
    <glyph glyph-name="Ohorn" unicode="&#x1a0;" horiz-adv-x="937" 
d="M769 667q122 -108 122 -273q0 -179 -114 -295t-306 -116q-106 0 -189.5 35.5t-132.5 93t-74 124.5t-25 136q0 77 26 146.5t77 125.5t135 89.5t191 33.5q153 0 260 -77q44 24 44 58q0 28 -36 61q-6 6 -7 8.5t5 11.5q15 20 48.5 41t54.5 21q13 0 22 -14q12 -18 12 -54
q0 -45 -32.5 -88t-80.5 -68zM501 47q23 0 44.5 4.5t49.5 23t48 49t34 89t14 137.5q0 65 -14 126t-42 113.5t-77 84t-112 31.5q-38 0 -70 -12.5t-62 -42t-47 -89t-17 -144.5q0 -98 26 -180t84.5 -136t140.5 -54z" />
    <glyph glyph-name="ohorn" unicode="&#x1a1;" horiz-adv-x="862" 
d="M710 566q100 -94 100 -225q0 -156 -102 -256t-275 -100q-95 0 -171 30.5t-120 80.5t-67 107.5t-23 117.5q0 69 24 130t70.5 109t122 76t170.5 28q144 0 243 -75q43 24 43 58q0 27 -37 61q-6 6 -7 8.5t5 11.5q15 20 48.5 41t54.5 21q13 0 22 -14q12 -18 12 -54
q0 -45 -32.5 -88t-80.5 -68zM457 45q161 0 161 256q0 54 -10.5 104t-33 97t-65.5 75.5t-101 28.5q-164 0 -164 -242q0 -84 21.5 -154t71 -117.5t120.5 -47.5z" />
    <glyph glyph-name="Uhorn" unicode="&#x1af;" horiz-adv-x="875" 
d="M765 463v-98q0 -42 -1 -70t-7 -67t-16 -67.5t-30 -58.5t-48 -53q-79 -66 -208 -66q-161 0 -238 67q-93 77 -93 261v152q0 183 -3 215q-2 22 -8 32.5t-23 15.5q-19 7 -36 7q-20 3 -20 11q0 9 26 9t86 -1l60 -2l70 2q70 1 91 1q24 0 24 -9q0 -10 -24 -12q-5 -1 -14 -3
t-14 -3q-19 -3 -25.5 -16t-8.5 -40q-3 -48 -3 -207v-150q0 -103 16.5 -154t58.5 -80q44 -29 101 -29q67 0 110 37q20 17 32 43.5t17 66.5t6 67t1 79v120q0 175 -2 207q-2 28 -9.5 40t-30.5 17q-16 4 -45 6q-19 1 -19 9q0 11 22 11q26 0 59.5 -0.5t57.5 -1.5t25 -1h69
q20 0 28.5 7t8.5 24q0 31 -42 70q-9 9 0 21q13 20 45.5 39.5t50.5 19.5q9 0 19 -12q14 -21 14 -55q0 -50 -22 -81t-72 -62q-20 -13 -26 -22.5t-7 -35.5q-2 -29 -3 -200z" />
    <glyph glyph-name="uhorn" unicode="&#x1b0;" horiz-adv-x="789" 
d="M188 649q1 0 33 0.5t69.5 1.5t51.5 1q22 0 22 -8q0 -7 -18 -10q-27 -3 -30 -4q-29 -6 -32 -51q-2 -27 -2 -178v-133q0 -88 15 -132t54 -69q35 -20 82 -20q58 0 92 27q25 20 37 61.5t13 70t1 92.5v103q0 148 -2 176q-2 26 -9.5 37.5t-28.5 15.5q-9 2 -33 4q-16 1 -16 9
q0 9 20 9q30 0 73.5 -1.5t51.5 -1.5h66q38 0 38 32q0 29 -43 69q-8 8 0 21q13 20 46 40.5t51 20.5q9 0 19 -13q14 -21 14 -55q0 -50 -23 -84t-71 -65q-20 -11 -26 -21t-7 -37q-3 -48 -3 -156v-83q0 -47 -2.5 -77.5t-10.5 -71t-28.5 -72.5t-52.5 -57q-71 -55 -186 -55
q-145 0 -217 57q-84 65 -84 227v132q0 160 -2 188q-3 30 -27 39q-3 1 -39 6q-19 3 -19 10q0 8 25 8q16 0 49.5 -1t60.5 -1z" />
    <glyph glyph-name="uni01CD" unicode="&#x1cd;" horiz-adv-x="744" 
d="M439 204h-229q-6 0 -9 -7l-31 -82q-16 -42 -16 -64q0 -27 30 -30q7 -1 20.5 -2.5t14.5 -1.5q18 0 18 -10t-21 -10q-22 0 -63 1.5t-69 1.5q-1 0 -49 -1.5t-78 -1.5q-20 0 -20 10t19 10q21 2 32 4q25 5 42 25.5t34 60.5l267 604q26 58 41 58q12 0 36 -50l262 -591
q25 -58 44.5 -80.5t46.5 -26.5q3 -1 32 -4q19 0 19 -10t-26 -10q-84 0 -276 3q-22 0 -22 9t14 12q17 3 12 18l-67 159q-1 6 -8 6zM239 284h171q8 0 5 5l-88 214q-4 8 -7 0l-85 -214q-2 -5 4 -5zM362 817q-7 0 -23 10l-133 91q-19 14 -19 19q0 4 7 11l49 33q11 7 19 -2
q30 -26 106 -76q14 -8 19 -8q6 0 20 7q40 18 130 72q18 10 26 10t3 -11q-3 -6 -10 -11q-7 -8 -87 -68.5t-83 -63.5q-16 -13 -24 -13z" />
    <glyph glyph-name="uni01CE" unicode="&#x1ce;" 
d="M400 162h-207q-7 0 -10 -9l-21 -51q-15 -37 -15 -53q0 -27 56 -32h5q16 -1 16 -9q0 -11 -17 -11q-21 0 -60 1.5t-65 1.5q-1 0 -43 -1.5t-68 -1.5q-18 0 -18 10t16 10q34 4 53.5 19t38.5 57l240 512q27 59 42 59q7 0 14 -10t21 -37l237 -506q24 -50 40 -69t41 -23
q16 -2 20 -2q17 0 17 -10t-18 -10q-208 2 -258 3q-18 0 -18 9q0 6 12 10q13 5 13 8q1 3 -1 7l-55 123q-2 5 -8 5zM221 241h150q7 0 5 4l-79 179q-2 4 -5 -1l-74 -178q-1 -4 3 -4zM329 711q-5 0 -23 11l-125 85q-19 14 -19 19q0 4 7 11l50 33q10 7 18 -2q42 -35 98 -70
q11 -8 19 -8q6 0 20 7q52 23 120 64q18 10 25 10q10 0 4 -12q-3 -6 -10 -11q-7 -8 -81.5 -64l-78.5 -59q-15 -14 -24 -14z" />
    <glyph glyph-name="uni01CF" unicode="&#x1cf;" horiz-adv-x="489" 
d="M156 287v176q0 184 -3 216q-3 44 -35 50q-8 2 -30 4q-19 0 -19 11q0 9 22 9q18 0 52.5 -0.5t63 -1.5t30.5 -1q1 0 71.5 1.5t91.5 1.5q22 0 22 -10t-19 -10q-27 -3 -29 -3q-20 -4 -28.5 -15.5t-9.5 -38.5q-3 -32 -3 -213v-176q0 -161 5 -214q3 -43 38 -51q11 -2 44 -5
q21 0 21 -10t-21 -10q-30 0 -73.5 0.5t-76 1.5t-34.5 1q-1 0 -30.5 -1t-64 -1.5t-49.5 -0.5q-24 0 -24 10t20 10q20 2 31 4q26 4 31 54q6 63 6 212zM237 805q-7 0 -23 11l-68.5 46t-64.5 44q-19 14 -19 19q0 3 6 11l50 33q10 7 19 -2q38 -33 106 -75q11 -9 19 -9q5 0 20 7
q45 21 129 72q17 10 26 10q10 0 3 -12q-3 -5 -9 -10q-8 -8 -87.5 -68.5t-82.5 -62.5q-15 -14 -24 -14z" />
    </font>
</defs>
</svg>
